<?xml version="1.0" standalone="no"?>
<!DOCTYPE svg PUBLIC "-//W3C//DTD SVG 1.1//EN" "https://www.w3.org/Graphics/SVG/1.1/DTD/svg11.dtd">
<svg xmlns="https://www.w3.org/2000/svg">
<defs >
<font id="Signika" horiz-adv-x="507" ><font-face
    font-family="Signika"
    units-per-em="1000"
    panose-1="2 1 0 3 2 6 0 0 0 4"
    ascent="940"
    descent="-292"
    alphabetic="0" />
<glyph unicode=" " glyph-name="space" horiz-adv-x="220" />
<glyph unicode="!" glyph-name="exclam" horiz-adv-x="288" d="M102 194L90 660Q130 690 200 690L207 683L182 194Q174 191 163 190T141 189Q130 189 120 190T102 194ZM86 97Q106 110 142 110Q158 110 170 108T191 102T204 85T208 50Q208 30 204 17T192 0T171
-6T142 -9Q127 -9 115 -7T94 -1T81 16T77 50Q77 83 86 97Z" />
<glyph unicode="&quot;" glyph-name="quotedbl" horiz-adv-x="390" d="M234 751Q257 764 285 764Q314 764 337 751Q344 724 344 709Q344 696 338 668Q330 629 324 590T313 508Q304 503 285 503Q277 503 270 504T258 508Q247 591 237 643T227 710Q227 724 234 751ZM53
751Q76 764 104 764Q133 764 156 751Q163 724 163 709Q163 702 162 692T158 668Q150 629 144 590T132 508Q127 505 120 504T105 503Q97 503 90 504T77 508Q66 591 56 643T46 710Q46 724 53 751Z" />
<glyph unicode="#" glyph-name="numbersign" horiz-adv-x="645" d="M428 498L460 639Q477 646 506 646T553 639L521 498H619Q625 480 625 455T619 412H502L464 240H571Q578 223 578 198T571 155H445L413 13Q396 6 366 6T319 13L351 155H226L194 13Q178 6 147 6T100
13L132 155H30Q23 172 23 197T30 240H151L190 412H77Q71 429 71 454T77 498H209L241 639Q258 646 287 646T334 639L302 498H428ZM283 412L245 240H370L409 412H283Z" />
<glyph unicode="$" glyph-name="dollar" horiz-adv-x="499" d="M33 98Q34 119 46 143T74 178Q175 122 255 122Q297 122 324 139T352 189Q352 241 279 268L179 304Q117 326 87 363T56 450Q56 510 95 552T204 606V688Q216 692 244 692Q274 692 287 688V608Q327 604
366 593T443 565Q443 515 405 483Q319 522 250 522Q210 522 186 505T162 460Q162 434 178 420T231 394L328 358Q388 335 424 296T460 193Q460 130 413 87T283 37V-39Q265 -42 240 -42Q215 -42 200 -39V39Q100 52 33 98Z" />
<glyph unicode="%" glyph-name="percent" horiz-adv-x="907" d="M810 29Q769 -12 702 -12Q623 -12 584 40T544 194Q544 298 585 348T701 398Q776 398 817 349T859 193Q859 78 810 29ZM771 192Q771 329 702 329Q633 329 633 192Q633 56 702 56Q771 56 771 192ZM314
654Q363 605 363 490Q363 384 322 335T205 285Q130 285 89 334T48 490Q48 595 89 645T205 695Q273 695 314 654ZM205 627Q137 627 137 490Q137 354 205 354Q274 354 274 490Q274 627 205 627ZM214 0L591 683Q609 688 633 688Q674 688 692 683L316 0Q298 -5 273
-5Q252 -5 238 -4T214 0Z" />
<glyph unicode="&amp;" glyph-name="ampersand" horiz-adv-x="623" d="M499 317L500 151Q500 142 501 105T507 0Q487 -6 457 -6Q444 -6 432 -5T410 -1L402 40Q328 -13 240 -13Q196 -13 161 1T101 41T63 99T50 171Q50 209 60 241T89 298T131 340T182 366Q136 381
108 422T79 518Q79 557 94 589T136 646T203 683T290 696Q388 696 472 667Q472 616 444 585Q360 611 305 611Q248 611 219 584T189 509Q189 461 219 434T313 407H497Q557 407 592 422Q606 405 606 372Q606 317 531 317H499ZM398 254Q398 274 398 290T399 317H303Q267
317 241 307T196 279T169 237T160 186Q160 132 188 102T266 71Q340 71 398 118V254Z" />
<glyph unicode="&apos;" glyph-name="quotesingle" horiz-adv-x="211" d="M50 751Q73 764 101 764Q130 764 153 751Q160 724 160 709Q160 696 154 668Q146 629 140 590T129 508Q120 503 101 503Q93 503 86 504T74 508Q63 591 53 643T43 710Q43 724 50 751Z" />
<glyph unicode="(" glyph-name="parenleft" horiz-adv-x="332" d="M316 773Q174 589 174 324Q174 60 316 -124Q298 -166 254 -180Q209 -136 174 -77T114 49T76 187T62 325Q62 392 75 462T113 600T173 726T254 829Q298 815 316 773Z" />
<glyph unicode=")" glyph-name="parenright" horiz-adv-x="332" d="M16 -124Q158 63 158 324Q158 586 16 773Q34 815 78 829Q122 785 157 726T217 600T255 462T269 324Q269 257 256 187T218 49T158 -77T78 -180Q34 -166 16 -124Z" />
<glyph unicode="*" glyph-name="asterisk" horiz-adv-x="504" d="M45 547Q43 564 52 591T73 633L125 615Q159 603 226 562Q208 632 208 675L207 731Q223 738 251 738T297 731L296 675Q296 637 277 563Q345 603 379 615L432 632Q443 620 452 593T460 547L406 530Q368
518 293 514Q350 467 375 433L407 389Q399 374 377 357T335 336L303 381Q277 418 252 483Q227 417 201 382L169 336Q151 341 129 357T96 389L129 433Q152 464 210 514Q136 518 98 531L45 547Z" />
<glyph unicode="+" glyph-name="plus" horiz-adv-x="530" d="M219 337L218 386V509Q238 513 265 513T312 509V386L311 337L360 338H474Q478 318 478 292T474 249H360L311 250L312 202V78Q293 74 266 74T218 78V202L219 250L170 249H56Q52 266 52 292T56 338H170L219 337Z" />
<glyph unicode="," glyph-name="comma" horiz-adv-x="269" d="M197 104Q208 74 208 38Q208 -28 170 -82T60 -161Q46 -154 40 -140T33 -109Q68 -94 91 -67T116 -9Q97 -4 86 -1T73 11T69 30T67 56Q67 79 70 92T84 108T107 114T137 117Q178 117 197 104Z" />
<glyph unicode="-" glyph-name="hyphen" horiz-adv-x="350" d="M299 222H51Q46 239 46 266T51 311H299Q304 293 304 266T299 222Z" />
<glyph unicode="." glyph-name="period" horiz-adv-x="263" d="M70 104Q95 118 132 118Q149 118 162 116T185 109T198 91T202 55Q202 34 200 21T188 2T166 -5T133 -8Q114 -8 101 -6T77 1T64 19T61 55Q61 87 70 104Z" />
<glyph unicode="/" glyph-name="slash" horiz-adv-x="422" d="M7 -77L323 761Q373 758 413 728L97 -111Q47 -108 7 -77Z" />
<glyph unicode="0" glyph-name="zero" horiz-adv-x="530" d="M119 603Q177 661 265 661Q374 661 429 582T484 324Q484 147 431 67T265 -13Q152 -13 98 71T46 324Q46 375 49 416T61 492T83 553T119 603ZM193 104Q216 69 265 69Q294 69 314 81T348 123T368 202T375
324Q375 397 369 446T349 524T315 566T265 579Q236 579 216 567T182 525T162 446T155 324Q155 154 193 104Z" />
<glyph unicode="1" glyph-name="one" horiz-adv-x="530" d="M243 86L242 153V381Q242 397 247 502Q191 433 103 394Q67 414 59 456Q199 543 246 648Q267 653 294 653T344 648V153L343 86L402 87H471Q475 68 475 44T471 0H94Q90 20 90 44T94 87H186L243 86Z" />
<glyph unicode="2" glyph-name="two" horiz-adv-x="530" d="M475 91Q475 48 462 24T406 0H95Q54 36 54 65Q54 145 179 255L277 341Q315 374 333 408T352 476Q352 521 325 548T256 575Q214 575 184 549T136 480Q115 481 93 490T61 515Q72 546 91 572T136 618T197
649T272 661Q312 661 346 647T406 609T445 552T459 482Q459 444 451 416T427 362T388 314T334 265L257 199Q169 123 159 83Q198 87 231 89T291 91H475Z" />
<glyph unicode="3" glyph-name="three" horiz-adv-x="530" d="M430 536L325 424Q318 417 309 409T289 393Q329 392 363 379T422 342T461 281T475 197Q475 149 457 110T407 44T334 2T248 -13Q126 -13 48 53Q59 95 94 122Q162 72 227 72Q293 72 330 106T367 201Q367
260 337 291T261 323Q218 323 186 306Q158 319 144 362L269 498Q320 549 337 563L334 568Q295 558 218 558H77Q71 574 71 598Q71 624 80 648H429Q451 607 451 582Q451 560 430 536Z" />
<glyph unicode="4" glyph-name="four" horiz-adv-x="530" d="M392 139L393 85V0Q370 -4 342 -4T292 0V85L293 139L239 137H62Q38 176 38 194T58 263L227 654Q249 659 279 654T324 635L209 369Q165 267 139 224L142 220Q205 225 256 225H293Q292 236 292 257V335Q292
372 310 393T360 415H388L393 410V278L392 225L438 226H491Q494 205 494 183T487 138H438L392 139Z" />
<glyph unicode="5" glyph-name="five" horiz-adv-x="530" d="M439 648Q446 628 446 605Q446 559 400 559H189V509L182 413Q225 431 270 431Q363 431 418 376T473 214Q473 162 455 120T405 49T332 3T244 -13Q129 -13 56 51Q59 68 72 88T100 120Q136 95 170 84T234
72Q292 72 328 110T365 216Q365 251 356 276T328 317T288 340T241 348Q214 348 185 338T129 305Q115 307 101 317T79 340L93 641L100 648H439Z" />
<glyph unicode="6" glyph-name="six" horiz-adv-x="530" d="M120 51Q102 74 89 100T67 158T54 231T50 327Q50 405 67 467T116 572T197 638T308 661Q396 661 452 629Q447 578 415 556Q367 578 314 578Q238 578 200 524T159 376Q220 433 304 433Q389 433 437 379T485
219Q485 168 470 125T426 52T359 4T270 -13Q175 -13 120 51ZM277 346Q212 346 159 290V274Q159 172 188 120T276 67Q324 67 351 105T379 209Q379 346 277 346Z" />
<glyph unicode="7" glyph-name="seven" horiz-adv-x="530" d="M69 648H465Q484 610 484 586T468 540L434 491Q358 379 317 275T262 36L259 0Q236 -5 207 -5T151 0L155 41Q179 277 318 477L329 493Q349 524 385 563L381 567Q340 558 229 558H65Q60 576 60 600T69 648Z" />
<glyph unicode="8" glyph-name="eight" horiz-adv-x="530" d="M44 163Q44 220 77 265T161 337Q61 391 61 490Q61 527 76 558T120 612T185 648T266 661Q310 661 347 649T410 614T452 561T467 494Q467 446 440 409T370 348Q485 286 485 171Q485 129 468 95T419 37T347
0T258 -13Q210 -13 171 -1T103 33T60 88T44 163ZM237 305H235Q150 257 150 171Q150 120 182 91T263 62Q314 62 346 92T378 172Q378 262 254 299L237 305ZM165 491Q165 415 281 383L293 378Q364 419 364 490Q364 533 336 558T264 584Q222 584 194 559T165 491Z"
/>
<glyph unicode="9" glyph-name="nine" horiz-adv-x="530" d="M410 597Q428 574 441 548T462 490T475 416T480 321Q480 243 463 181T414 76T333 10T222 -13Q134 -13 78 19Q83 70 115 92Q163 70 216 70Q292 70 330 124T371 271Q307 215 225 215Q141 215 93 269T45
429Q45 482 61 525T105 598T173 644T259 661Q355 661 410 597ZM253 302Q316 302 371 357V374Q371 476 342 528T253 581Q205 581 178 543T151 439Q151 302 253 302Z" />
<glyph unicode=":" glyph-name="colon" horiz-adv-x="269" d="M73 104Q99 118 135 118Q152 118 165 116T188 109T201 91T205 55Q205 34 202 20T190 1T169 -5T136 -8Q117 -8 104 -6T81 0T68 18T64 55Q64 87 73 104ZM73 433Q99 447 135 447Q152 447 165 445T188
438T201 420T205 384Q205 363 202 349T191 330T169 323T136 321Q117 321 104 323T81 329T68 347T64 384Q64 416 73 433Z" />
<glyph unicode=";" glyph-name="semicolon" horiz-adv-x="273" d="M196 104Q207 74 207 38Q207 -28 169 -82T59 -161Q45 -154 39 -140T32 -109Q67 -94 90 -67T115 -9Q96 -4 86 -1T73 11T68 30T66 56Q66 79 70 92T83 108T106 114T136 117Q177 117 196 104ZM75 433Q100
447 137 447Q154 447 167 446T189 438T202 419T207 384Q207 363 204 351T192 332T171 323T138 321Q119 321 106 322T83 330T70 349T66 384Q66 416 75 433Z" />
<glyph unicode="&lt;" glyph-name="less" horiz-adv-x="530" d="M54 334L423 536Q466 510 471 455L234 330L160 296V290L234 256L471 131Q469 106 455 84T423 49L54 251Q41 298 54 334Z" />
<glyph unicode="=" glyph-name="equal" horiz-adv-x="530" d="M474 154H56Q52 173 52 198T56 243H474Q478 224 478 199T474 154ZM474 347H56Q52 364 52 390T56 436H474Q478 416 478 390T474 347Z" />
<glyph unicode="&gt;" glyph-name="greater" horiz-adv-x="530" d="M476 252L107 50Q64 76 59 132L296 256Q314 266 370 290V297Q314 321 296 331L59 456Q61 481 75 503T107 538L476 335Q489 289 476 252Z" />
<glyph unicode="?" glyph-name="question" horiz-adv-x="396" d="M11 645Q102 696 195 696Q288 696 337 650T387 525Q386 465 355 416T257 331L194 297L186 195Q168 189 146 189Q125 189 107 195L101 344L110 355L158 380Q218 411 247 444T277 515Q277 553 252
578T177 604Q151 604 119 596T49 568Q35 580 24 602T11 645ZM91 96Q111 109 147 109Q162 109 174 107T197 100T210 83T213 49Q213 27 209 15T198 -1T176 -7T147 -10Q131 -10 119 -7T99 -1T86 15T82 49Q82 79 91 96Z" />
<glyph unicode="@" glyph-name="at" horiz-adv-x="949" d="M663 412L662 157Q662 88 705 88Q748 88 776 137T805 293Q805 362 783 418T719 515T619 578T487 600Q413 600 352 572T247 493T179 375T154 226Q154 145 175 83T236 -22T330 -86T453 -108Q567 -108 656
-71Q683 -100 683 -144Q568 -188 446 -188Q358 -188 285 -161T160 -81T79 48T50 224Q50 322 83 405T174 548T313 643T487 677Q580 677 657 650T790 572T876 450T907 290Q907 225 891 173T847 85T782 29T703 9Q620 9 582 71Q520 5 444 5Q369 5 327 65T284 231Q284
283 297 328T337 408T402 461T491 481Q589 481 663 412ZM465 86Q490 86 517 103T564 145V376Q534 406 485 406Q461 406 442 393T411 357T391 301T384 229Q384 86 465 86Z" />
<glyph unicode="A" glyph-name="A" horiz-adv-x="611" d="M429 166L369 165H232L174 166L121 -1Q104 -5 76 -5T23 2L20 7L246 683Q267 687 307 687T367 683L591 7Q570 -7 537 -7T490 5T466 49L429 166ZM201 252L252 253H352Q393 252 402 252L356 397Q321 509 303
578H298Q286 523 259 433L201 252Z" />
<glyph unicode="B" glyph-name="B" horiz-adv-x="605" d="M318 -4L97 -2L91 6V677L97 684L305 687Q414 687 468 640T523 506Q523 458 497 421T429 366Q454 358 477 341T518 301T545 250T556 191Q556 103 497 50T318 -4ZM196 76L317 77Q354 77 379 87T419 113T440
151T447 198Q447 220 440 241T416 280T373 307T311 318H196V76ZM196 607V400H301Q333 400 355 408T390 430T410 463T416 503Q416 606 303 606Q265 606 239 606T196 607Z" />
<glyph unicode="C" glyph-name="C" horiz-adv-x="604" d="M460 447Q460 479 453 508T428 560T384 596T318 610Q241 610 201 541T161 343Q161 215 204 148T331 80Q415 80 506 156Q547 129 559 87Q537 65 509 47T449 16T384 -5T318 -13Q241 -13 189 16T108 94T64
206T49 338Q49 428 70 495T127 606T213 673T317 696Q374 696 419 680T497 637T547 575T564 501Q564 441 504 441Q485 441 460 447Z" />
<glyph unicode="D" glyph-name="D" horiz-adv-x="648" d="M491 46Q476 34 456 25T411 9T363 -1T316 -5Q293 -5 239 -4T97 -1L91 6V677L97 684Q184 687 317 687Q398 687 452 660T538 586T584 476T597 340Q597 240 576 169T491 46ZM317 601H197V81H317Q487 81 487
341Q487 477 445 539T317 601Z" />
<glyph unicode="E" glyph-name="E" horiz-adv-x="566" d="M195 138L194 87Q224 90 260 90H519Q519 63 516 49Q507 -1 448 -1H151Q123 -1 107 16T90 65V677L97 683H499Q502 667 502 641T494 593H194L195 528V388L257 389H445Q450 371 450 345T445 301H257Q218 301
195 302V138Z" />
<glyph unicode="F" glyph-name="F" horiz-adv-x="522" d="M196 593L197 475V387Q212 388 239 388H440Q445 371 445 344T440 299H197V0Q174 -4 143 -4T91 0V677L97 683H493Q499 665 499 641Q499 592 439 592H292Q224 592 196 593Z" />
<glyph unicode="G" glyph-name="G" horiz-adv-x="643" d="M350 359L504 360Q580 360 580 290V30Q468 -13 333 -13Q258 -13 202 15T112 92Q49 189 49 337Q49 429 74 500T142 612Q229 696 345 696Q481 696 578 623Q570 573 527 543Q445 605 345 605Q262 605 211
540T160 336Q160 75 351 75Q422 75 478 92V204Q478 248 480 268H392Q342 268 342 315Q342 338 350 359Z" />
<glyph unicode="H" glyph-name="H" horiz-adv-x="675" d="M478 397L477 471V683Q498 687 530 687T584 683V0Q561 -4 531 -4T477 0V234L478 308L422 307H253L196 308L197 234V0Q176 -4 144 -4T91 0V683Q111 687 143 687T197 683V471L196 397L253 398H422L478 397Z" />
<glyph unicode="I" glyph-name="I" horiz-adv-x="294" d="M94 0V683Q114 687 146 687T200 683V0Q179 -4 147 -4T94 0Z" />
<glyph unicode="J" glyph-name="J" horiz-adv-x="448" d="M50 112Q105 79 161 79T240 115T264 234V683Q285 687 317 687T370 683V249Q370 188 362 146T333 66Q291 -10 166 -10Q78 -10 10 32Q18 78 50 112Z" />
<glyph unicode="K" glyph-name="K" horiz-adv-x="596" d="M580 28Q558 -6 508 -6Q479 -6 465 8T438 58L384 205Q363 261 336 284T269 307T197 305V0Q176 -4 144 -4T91 0V683Q111 687 143 687T197 683V396L253 398Q267 398 274 404T291 426L419 643Q433 667 445
676T485 686T544 683L551 674L400 418Q381 386 360 368Q407 359 433 330T481 245L535 100Q555 48 580 28Z" />
<glyph unicode="L" glyph-name="L" horiz-adv-x="512" d="M286 92H485Q485 70 482 50Q473 -1 413 -1H152Q124 -1 107 16T90 65V681L97 687H137Q170 687 183 671T197 619V88Q238 92 286 92Z" />
<glyph unicode="M" glyph-name="M" horiz-adv-x="808" d="M74 1L127 683Q151 687 197 687T266 683L361 370Q387 289 401 211H407Q414 260 446 370L541 683Q567 687 611 687T681 683L734 1Q712 -5 683 -5T632 -1L609 365Q603 445 601 568H595L458 104Q426 100 403
100T350 104L213 568H207Q202 417 199 365L175 -1Q155 -5 125 -5T74 1Z" />
<glyph unicode="N" glyph-name="N" horiz-adv-x="680" d="M583 687L589 682V1Q561 -4 525 -4T461 0L248 419Q216 486 185 558L181 557Q190 402 190 312V0Q166 -4 140 -4T91 0V682Q119 687 154 687T218 683L429 264Q443 234 466 183T495 119L499 120Q491 248 491
372V621Q491 657 503 672T548 687H583Z" />
<glyph unicode="O" glyph-name="O" horiz-adv-x="658" d="M192 521Q175 479 168 436T161 347Q161 296 168 247T194 158T246 96T330 72Q385 72 417 99T467 168T490 256T496 342Q496 382 491 429T468 516T418 584T329 611Q278 611 244 587T192 521ZM156 47Q49 139
49 341Q49 423 67 488T121 600T209 671T329 696Q396 696 448 672T536 601T589 489T608 341Q608 259 590 194T536 82T449 12T329 -13Q223 -13 156 47Z" />
<glyph unicode="P" glyph-name="P" horiz-adv-x="568" d="M97 684L303 687Q355 687 397 673T470 630T516 561T532 465Q532 411 516 369T469 299T397 256T303 241H197V0Q186 -2 172 -3T143 -4Q129 -4 115 -3T91 0V677L97 684ZM197 325L299 326Q333 326 356 337T394
368T414 412T421 464Q421 492 415 517T394 561T357 591T300 602Q265 602 240 602T197 603V325Z" />
<glyph unicode="Q" glyph-name="Q" horiz-adv-x="658" d="M453 -101L339 -13H329Q192 -13 121 80T49 342Q49 424 66 490T118 601T205 671T325 696Q394 696 445 672T532 602T584 493T602 348Q602 285 592 231T563 135T516 64T453 21L475 5Q497 -12 514 -22T547
-39T575 -47T602 -50Q600 -85 578 -107T524 -129Q490 -129 453 -101ZM325 611Q160 611 160 342Q160 74 325 74Q491 74 491 342Q491 611 325 611Z" />
<glyph unicode="R" glyph-name="R" horiz-adv-x="600" d="M97 684L312 687Q418 687 478 634T539 482Q539 415 504 367T411 300Q458 283 482 215L526 98Q545 46 571 26Q549 -7 499 -7Q471 -7 457 8T429 58L379 193Q364 233 343 254T278 275H196V0Q175 -4 143 -4T91
0V677L97 684ZM196 604V360Q274 362 307 362Q374 362 401 396T429 482Q429 603 307 603Q230 603 196 604Z" />
<glyph unicode="S" glyph-name="S" horiz-adv-x="556" d="M30 62Q34 111 75 144Q179 76 276 76Q335 76 369 102T404 170Q404 239 313 278L195 329Q58 388 58 502Q58 543 75 578T122 641T194 682T288 696Q393 696 496 644Q495 596 457 561Q361 608 286 608Q232
608 199 582T166 519Q166 482 186 462T249 424L365 374Q440 342 477 297T515 188Q515 98 453 43T263 -13Q136 -13 30 62Z" />
<glyph unicode="T" glyph-name="T" horiz-adv-x="492" d="M358 593L300 594V0Q277 -4 247 -4T193 0V520L194 594H193L136 593H17Q13 614 13 638T17 683H477Q483 659 483 637Q483 593 423 593H358Z" />
<glyph unicode="U" glyph-name="U" horiz-adv-x="669" d="M587 683V240Q587 118 519 53T334 -13Q218 -13 150 52T82 240V681L88 687H129Q161 687 174 671T188 619V240Q188 158 225 116T334 73Q480 73 480 240V683Q491 685 505 686T533 687Q548 687 562 686T587 683Z" />
<glyph unicode="V" glyph-name="V" horiz-adv-x="575" d="M300 95L459 683Q478 687 506 687T553 681L558 673L360 -1Q308 -5 278 -5T231 5T204 47L20 674Q56 690 86 690Q129 690 144 638L247 277Q271 192 291 105Q294 95 300 95Z" />
<glyph unicode="W" glyph-name="W" horiz-adv-x="850" d="M156 48L30 677Q59 690 87 690T128 678T146 633L209 293Q231 167 241 100Q242 88 250 88L359 669Q392 674 430 674T496 669L596 100Q598 88 605 88Q615 158 641 294L718 683Q738 687 766 687T817 681L822
674L679 1Q640 -5 598 -5T540 5T518 47L470 315Q445 462 430 562H423Q403 436 379 315L318 0Q275 -5 236 -5T180 5T156 48Z" />
<glyph unicode="X" glyph-name="X" horiz-adv-x="587" d="M445 683Q462 688 492 688T545 678L548 671L356 361L569 16Q535 -7 497 -7T431 36L286 270L123 0Q106 -5 75 -5T21 5L18 12L232 357L42 667Q76 690 114 690T179 648L302 448L445 683Z" />
<glyph unicode="Y" glyph-name="Y" horiz-adv-x="503" d="M303 454L394 683Q413 688 440 688T491 680L496 673L306 219V0Q283 -4 251 -4T199 0V221L9 671Q43 690 70 690T110 680T133 644L212 452Q232 402 254 327H259Q270 367 303 454Z" />
<glyph unicode="Z" glyph-name="Z" horiz-adv-x="562" d="M62 113L314 492Q324 507 393 598L390 601Q346 593 234 593H73Q69 609 69 631T77 683H489Q504 632 504 613T490 572L239 196Q216 161 161 89L164 86Q227 92 284 92H388Q468 92 506 111Q515 84 515 59Q515
0 441 0H61Q48 50 48 71T62 113Z" />
<glyph unicode="[" glyph-name="bracketleft" horiz-adv-x="344" d="M309 -142L106 -149L99 -143V809L106 815L309 808Q313 796 313 778T305 733L203 730V-64L305 -67Q313 -94 313 -112T309 -142Z" />
<glyph unicode="\" glyph-name="backslash" horiz-adv-x="422" d="M326 -111L10 728Q49 758 99 761L415 -77Q377 -106 326 -111Z" />
<glyph unicode="]" glyph-name="bracketright" horiz-adv-x="344" d="M237 -149L35 -142Q31 -130 31 -112T39 -67L141 -64V730L39 733Q31 760 31 778T35 808L237 815L244 809V-143L237 -149Z" />
<glyph unicode="^" glyph-name="asciicircum" horiz-adv-x="530" d="M321 648L486 306Q468 301 437 301T384 306L302 482Q291 508 268 566H262Q239 508 228 482L146 306Q125 301 94 301T44 306L209 648Q229 653 265 653T321 648Z" />
<glyph unicode="_" glyph-name="underscore" horiz-adv-x="530" d="M530 -155H0Q-5 -140 -5 -115T0 -74H530Q534 -91 534 -115T530 -155Z" />
<glyph unicode="`" glyph-name="grave" horiz-adv-x="398" d="M136 739L280 580Q266 547 235 538L64 671Q72 693 92 712T136 739Z" />
<glyph unicode="a" glyph-name="a" d="M461 46Q449 10 422 -7Q363 4 342 55Q271 -13 196 -13Q158 -13 130 -1T82 31T53 78T43 134Q43 216 95 258T235 300Q260 300 284 299T331 293V332Q331 421 249 421Q192 421 92 383Q63 408 62 458Q164 504 269 504Q347 504
390 463T433 337V132Q433 70 461 46ZM213 69Q277 69 331 129V224Q311 226 289 227T243 228Q197 228 172 206T146 146Q146 110 164 90T213 69Z" />
<glyph unicode="b" glyph-name="b" horiz-adv-x="528" d="M78 25V729L84 735H123Q154 735 166 720T179 669V451Q239 502 317 502Q397 502 440 433T484 241Q484 183 467 137T420 59T350 9T262 -8Q166 -8 78 25ZM288 416Q228 416 179 359V81Q216 69 265 69Q315 69
347 116T379 249Q379 336 355 376T288 416Z" />
<glyph unicode="c" glyph-name="c" horiz-adv-x="471" d="M339 303V314Q339 427 251 427Q203 427 177 381T151 244Q151 72 264 72Q320 72 385 122Q399 114 412 96T429 61Q355 -13 250 -13Q197 -13 159 6T95 61T57 145T44 253Q44 314 61 361T106 441T172 490T252
507Q295 507 328 494T385 460T421 412T434 356Q434 299 382 299Q356 299 339 303Z" />
<glyph unicode="d" glyph-name="d" horiz-adv-x="530" d="M236 502Q290 502 349 469V729L356 735H395Q426 735 438 720T450 669V141Q450 71 478 46Q474 32 463 16T440 -7Q383 4 361 55Q302 -13 217 -13Q132 -13 88 55T44 246Q44 307 59 354T101 435T162 485T236
502ZM240 73Q305 73 349 136V384Q293 420 252 420Q207 420 178 375T149 242Q149 155 175 114T240 73Z" />
<glyph unicode="e" glyph-name="e" horiz-adv-x="500" d="M444 214H150Q153 145 179 108T269 71Q299 71 333 80T405 109Q430 86 438 43Q358 -13 250 -13Q193 -13 154 7T91 62T55 145T44 250Q44 305 58 352T98 434T162 487T249 507Q297 507 334 491T398 447T437
379T451 293Q451 273 450 254T444 214ZM252 430Q157 430 150 289H352V302Q352 359 328 394T252 430Z" />
<glyph unicode="f" glyph-name="f" horiz-adv-x="333" d="M101 0V420L15 418Q13 426 12 436T11 456Q11 479 15 495L96 494Q90 555 90 583Q90 617 100 645T131 695T179 727T242 739Q312 739 372 716Q372 671 348 646Q325 653 305 657T267 661Q225 661 207 639T188
571Q188 554 190 535T195 493L336 495Q338 486 339 477T340 456Q340 446 339 436T336 418L202 420V0Q191 -2 178 -3T151 -4Q137 -4 124 -3T101 0Z" />
<glyph unicode="g" glyph-name="g" horiz-adv-x="528" d="M372 455Q394 490 441 501Q453 493 464 477T479 448Q451 421 451 353V57Q451 -20 439 -73T400 -158T334 -205T238 -220Q149 -220 65 -187Q66 -139 92 -109Q155 -140 228 -140Q299 -140 325 -104T351 -1V45Q292
-9 212 -9Q133 -9 89 60T44 250Q44 311 59 358T101 439T162 489T236 507Q316 507 372 455ZM351 136V379Q301 424 253 424Q205 424 177 379T149 246Q149 159 174 118T239 77Q301 77 351 136Z" />
<glyph unicode="h" glyph-name="h" horiz-adv-x="544" d="M470 338V106Q470 46 486 15Q458 -7 425 -7Q392 -7 380 9T367 59V313Q367 365 354 387T307 409Q274 409 240 392T179 347V0Q169 -2 156 -3T129 -4Q115 -4 102 -3T78 0V729L84 735H124Q155 735 167 720T179
669V436Q252 502 337 502Q404 502 437 458T470 338Z" />
<glyph unicode="i" glyph-name="i" horiz-adv-x="271" d="M195 408V0Q176 -4 144 -4T92 0V366Q92 394 82 406T48 418H37Q32 440 32 455T37 493Q70 497 100 497H114Q152 497 173 473T195 408ZM70 587Q61 605 61 631Q61 672 76 679T126 688Q166 687 177 678T189
631Q188 595 177 585T126 574Q87 574 70 587Z" />
<glyph unicode="j" glyph-name="j" horiz-adv-x="278" d="M201 408V18Q201 -52 192 -94T165 -162T120 -198T57 -219Q31 -195 27 -156Q48 -146 62 -135T84 -110T95 -77T99 -32V366Q99 394 90 406T56 418H36Q33 429 32 437T31 455Q31 463 32 472T36 493Q54 495 72
496T109 497H122Q159 497 180 474T201 408ZM76 587Q67 605 67 631Q67 667 77 676T132 688Q166 685 179 681T195 631Q192 589 182 583T132 574Q93 574 76 587Z" />
<glyph unicode="k" glyph-name="k" horiz-adv-x="502" d="M403 186L437 103Q460 42 485 25Q457 -7 416 -7Q390 -7 376 6T350 51L310 149Q294 188 277 201T235 215T179 213V0Q160 -4 129 -4T78 0V729L84 735H124Q155 735 167 720T179 669V299L213 301Q229 301 237
315L325 453Q350 497 389 497T447 496L453 488L344 315Q329 291 311 276Q373 260 403 186Z" />
<glyph unicode="l" glyph-name="l" horiz-adv-x="294" d="M217 77H254Q263 52 263 33T260 3Q220 -4 175 -4Q76 -4 76 99V729L83 735H122Q153 735 165 720T178 669V122Q178 77 217 77Z" />
<glyph unicode="m" glyph-name="m" horiz-adv-x="797" d="M349 313Q349 364 335 386T289 409Q235 409 181 348V0Q164 -4 130 -4Q114 -4 101 -3T78 0V491L84 498H123Q177 498 180 435Q251 503 327 503Q404 503 436 429Q518 503 595 503Q658 503 691 459T724 346V106Q724
44 740 15Q712 -7 675 -7Q620 -7 620 59V314Q620 365 606 387T560 409Q506 409 452 348V0Q442 -2 429 -3T400 -4Q386 -4 372 -3T349 0V313Z" />
<glyph unicode="n" glyph-name="n" horiz-adv-x="546" d="M472 339V106Q472 47 489 15Q463 -7 428 -7Q394 -7 382 9T369 59V313Q369 365 356 387T309 409Q276 409 242 393T181 347V0Q164 -4 130 -4Q114 -4 101 -3T78 0V492L84 498H123Q177 498 180 436Q253 503
339 503Q406 503 439 459T472 339Z" />
<glyph unicode="o" glyph-name="o" horiz-adv-x="520" d="M405 42Q350 -13 260 -13Q208 -13 168 5T101 58T59 140T44 247Q44 305 58 353T100 435T168 488T260 507Q312 507 352 489T419 436T461 353T476 247Q476 113 405 42ZM260 428Q151 428 151 247Q151 66 260
66Q370 66 370 247Q370 428 260 428Z" />
<glyph unicode="p" glyph-name="p" horiz-adv-x="530" d="M294 -9Q238 -9 180 24V-149Q180 -184 168 -199T124 -215H84L78 -209V492L84 498H116Q166 498 177 447Q235 507 316 507Q356 507 388 489T441 437T474 356T486 248Q486 188 471 140T430 59T368 9T294 -9ZM290
420Q225 420 180 355V110Q206 93 230 84T277 74Q324 74 352 120T381 251Q381 338 355 379T290 420Z" />
<glyph unicode="q" glyph-name="q" horiz-adv-x="529" d="M350 -149V43Q292 -9 212 -9Q133 -9 89 60T44 250Q44 311 59 358T101 439T162 489T236 507Q313 507 372 456Q396 490 440 501Q452 494 463 478T479 448Q451 423 451 353V-209L445 -215H406Q374 -215 362
-200T350 -149ZM239 77Q301 77 350 135V380Q298 424 253 424Q207 424 178 380T149 247Q149 160 174 119T239 77Z" />
<glyph unicode="r" glyph-name="r" horiz-adv-x="368" d="M50 446Q60 483 88 501Q157 486 179 412Q219 501 310 501Q334 501 363 495Q363 437 338 397Q329 400 297 402Q229 402 190 326V0Q171 -4 139 -4T87 0V343Q87 411 50 446Z" />
<glyph unicode="s" glyph-name="s" horiz-adv-x="438" d="M31 37Q32 54 42 75T65 109Q145 65 195 65Q246 65 270 82T295 127Q295 171 232 195L176 216Q49 264 49 359Q49 428 98 467T228 507Q309 507 389 471Q389 451 381 429T358 395Q287 428 225 428Q192 428
173 412T153 372Q153 348 167 335T215 309L275 286Q402 237 402 136Q402 67 349 27T205 -13Q114 -13 31 37Z" />
<glyph unicode="t" glyph-name="t" horiz-adv-x="350" d="M321 495Q326 478 326 456T321 418L198 420V121Q198 77 239 77H308Q316 55 316 33T314 3Q256 -4 202 -4Q97 -4 97 99V419L23 418Q19 435 19 455T23 495L97 493V581Q97 617 109 632T152 647H191L198 640V492L321
495Z" />
<glyph unicode="u" glyph-name="u" horiz-adv-x="547" d="M74 155V388Q74 448 57 478Q82 500 122 500Q177 500 177 435V180Q177 128 190 106T236 84T303 100T364 145V494Q392 498 415 498T468 494V140Q468 70 496 45Q485 9 457 -7Q394 4 373 65Q295 -9 206 -9Q140
-9 107 36T74 155Z" />
<glyph unicode="v" glyph-name="v" horiz-adv-x="455" d="M236 84L354 494Q373 498 398 498T445 490L448 486Q373 234 294 0Q265 -5 226 -5T172 6T144 52L6 486Q39 501 65 501Q110 501 121 457L188 237Q207 177 227 92Q229 84 236 84Z" />
<glyph unicode="w" glyph-name="w" horiz-adv-x="723" d="M126 52L22 487Q53 501 83 501Q123 501 131 459L176 251Q189 193 209 85Q211 77 217 77L301 491Q321 496 363 496T424 491L506 85Q507 77 514 77Q528 153 550 251L604 494Q620 498 651 498T700 490L703
485L582 -1Q554 -5 513 -5T455 6T432 51L403 190L365 398H360Q344 308 319 191L279 0Q241 -5 204 -5T151 6T126 52Z" />
<glyph unicode="x" glyph-name="x" horiz-adv-x="460" d="M331 494Q349 498 375 498T424 491L427 483L286 262L447 16Q410 -8 377 -8T322 23L222 176L114 -1Q102 -5 71 -5T18 3L15 11L172 255L28 478Q60 502 94 502T151 471L236 339L331 494Z" />
<glyph unicode="y" glyph-name="y" horiz-adv-x="468" d="M456 485L324 16Q306 -47 287 -91T242 -164T182 -205T101 -218Q93 -218 77 -217T45 -214T17 -208T5 -198Q5 -181 11 -160T28 -128Q61 -141 106 -141Q149 -141 176 -111T222 -17L225 -5Q193 -4 175 7T148
49L16 486Q52 501 79 501Q118 501 131 455L199 225Q204 209 213 173T236 78Q237 71 245 71L355 494Q363 496 373 497T397 498Q411 498 425 497T453 491L456 485Z" />
<glyph unicode="z" glyph-name="z" horiz-adv-x="446" d="M51 97L214 319Q242 357 293 416L290 420Q248 414 158 414H53Q49 427 49 448T55 494H390Q405 449 405 434T392 398L229 177Q209 149 152 80L155 76Q198 80 247 80H295Q371 80 402 94Q412 71 412 49Q412
0 347 0H49Q35 42 35 59T51 97Z" />
<glyph unicode="{" glyph-name="braceleft" horiz-adv-x="346" d="M42 360Q78 371 101 402T124 477V647Q124 716 163 758T266 810L318 819Q329 807 334 785T336 748L287 732Q229 714 229 646V479Q229 431 207 389T146 329V321Q184 304 206 262T229 172V4Q229 -63
287 -82L336 -97Q340 -113 335 -135T318 -169L266 -160Q201 -149 163 -108T124 3V174Q124 217 101 248T42 291Q38 304 38 325T42 360Z" />
<glyph unicode="|" glyph-name="bar" horiz-adv-x="255" d="M79 -141V774Q98 779 127 779T176 774V-141Q156 -145 128 -145T79 -141Z" />
<glyph unicode="}" glyph-name="braceright" horiz-adv-x="346" d="M304 360Q309 347 309 326T304 291Q268 280 245 248T222 174V3Q222 -66 184 -107T80 -160L29 -169Q18 -157 12 -135T10 -97L60 -82Q117 -63 117 4V172Q117 220 140 262T200 321V329Q163 347 140
389T117 479V646Q117 715 60 732L10 748Q6 763 12 785T29 819L80 810Q144 800 183 758T222 647V477Q222 434 245 403T304 360Z" />
<glyph unicode="~" glyph-name="asciitilde" horiz-adv-x="586" d="M276 356L354 320Q385 308 406 308Q423 307 437 315T466 340L485 362Q503 361 521 350T546 322L533 299Q484 211 395 211Q376 212 355 216T310 231L231 267Q219 272 207 275T182 279Q149 280
120 247L101 225Q83 227 65 238T40 265L53 288Q102 376 191 376Q227 376 276 356Z" />
<glyph unicode="&#xa1;" glyph-name="exclamdown" horiz-adv-x="288" d="M186 299L198 -167Q157 -197 88 -197L81 -189L106 299Q123 304 146 304Q168 304 186 299ZM202 396Q182 384 145 384Q127 384 115 386T94 394T83 411T80 442Q80 455 82 468T89 490Q100 496
114 499T145 502Q160 502 171 501T193 495T207 477T211 442Q211 409 202 396Z" />
<glyph unicode="&#xa2;" glyph-name="cent" horiz-adv-x="468" d="M205 -31V68Q162 75 131 98T81 156T52 235T42 331Q42 437 88 501T208 581V681Q223 684 248 684Q273 684 291 681V583Q324 578 350 563T393 528T420 485T430 439Q430 378 375 378Q366 378 356 379T335
383V397Q335 443 315 474T247 506Q150 506 150 328Q150 151 262 151Q321 151 381 202Q415 181 427 144Q373 83 288 68V-31Q271 -34 246 -34Q220 -34 205 -31Z" />
<glyph unicode="&#xa3;" glyph-name="sterling" horiz-adv-x="529" d="M215 345L399 346Q411 307 399 267Q286 267 230 268Q230 177 165 86L168 83Q260 88 308 88H492Q492 64 490 50Q481 -1 421 -1H68Q55 50 55 71T69 111L85 136Q134 207 134 267H58Q46 305 58
346Q67 346 86 346T116 345Q88 410 82 437T76 483Q76 552 128 606T275 661Q393 661 474 587Q472 566 456 546T420 519Q354 574 283 574Q238 574 209 548T180 477Q180 441 196 397T215 345Z" />
<glyph unicode="&#xa4;" glyph-name="currency" horiz-adv-x="575" d="M103 213Q68 266 68 333Q68 403 102 455L32 532Q50 565 88 589L166 517Q218 550 286 550Q354 550 407 517L486 590Q521 570 543 534L471 456Q506 401 506 334Q506 302 497 271T471 213L542
136Q524 103 486 79L406 152Q356 120 287 120Q220 120 167 152L88 80Q52 101 32 136L103 213ZM287 471Q233 471 203 432T173 334Q173 305 181 281T203 238T239 209T287 198Q314 198 335 208T371 237T394 280T402 334Q402 392 372 431T287 471Z" />
<glyph unicode="&#xa5;" glyph-name="yen" horiz-adv-x="516" d="M459 171H308V0Q285 -4 256 -4T206 0V171H55Q50 193 50 206T55 242H201L166 321H55Q50 343 50 356T55 392H134L24 638Q60 658 93 658T143 618L217 439Q233 403 258 323H264Q288 399 307 440L395
650Q418 656 440 656T489 649L493 643L380 392H459Q463 373 463 356T459 321H348L313 242H459Q463 223 463 206T459 171Z" />
<glyph unicode="&#xa6;" glyph-name="brokenbar" horiz-adv-x="249" d="M77 -141V246Q94 251 123 251T173 246V-141Q152 -145 124 -145T77 -141ZM77 387V774Q94 779 123 779T173 774V387Q152 383 124 383T77 387Z" />
<glyph unicode="&#xa7;" glyph-name="section" horiz-adv-x="485" d="M455 304Q455 214 349 156Q418 108 418 41Q418 -27 366 -67T224 -108Q133 -108 66 -66Q66 -47 75 -26T99 7Q172 -29 234 -29Q271 -29 292 -13T314 30Q314 69 251 95L193 118Q117 148 75 185T32
284Q32 329 61 367T138 432Q69 477 69 545Q69 580 83 608T121 655T178 685T249 696Q326 696 404 661Q404 640 396 619T374 586Q336 603 305 610T251 617Q210 617 192 600T173 558Q173 519 236 494L294 471Q370 441 412 403T455 304ZM249 382L210 397Q134 358 134
300Q133 267 160 247T238 207L276 192Q352 231 352 288Q352 320 326 341T249 382Z" />
<glyph unicode="&#xa8;" glyph-name="dieresis" horiz-adv-x="398" d="M244 573Q239 582 238 592T236 612Q236 644 248 654T292 664Q321 664 334 656T348 612Q348 579 337 570T293 561Q263 561 244 573ZM58 573Q53 581 52 591T50 612Q50 645 65 654T106 664Q137
664 149 654T162 612Q162 580 150 571T105 561Q74 561 58 573Z" />
<glyph unicode="&#xa9;" glyph-name="copyright" horiz-adv-x="802" d="M144 84Q40 188 40 341Q40 417 68 483T144 597T259 674T400 702Q476 702 542 674T657 597T734 483T762 341Q762 264 734 199T658 85T543 9T401 -19Q247 -19 144 84ZM205 545Q127 461 127
341Q127 282 147 230T204 139T291 77T401 54Q461 54 511 77T598 139T655 230T676 341Q676 400 655 452T598 544T511 606T401 629Q283 629 205 545ZM472 380V390Q472 423 455 448T400 474Q361 474 339 440T317 342Q317 279 341 246T411 212Q434 212 459 222T511
253Q537 240 548 203Q522 177 481 160T400 143Q357 143 325 157T272 199T239 263T228 346Q228 392 242 428T280 490T335 528T402 541Q437 541 464 531T511 503T541 464T552 422Q552 375 506 375Q489 375 472 380Z" />
<glyph unicode="&#xaa;" glyph-name="ordfeminine" horiz-adv-x="424" d="M379 342Q377 330 366 317T342 296Q296 303 277 343Q221 292 162 292Q132 292 110 301T72 326T48 363T40 408Q40 474 81 505T192 537Q203 537 221 536T266 533V561Q266 625 207 625Q152
625 81 597Q56 623 56 660Q141 696 212 696Q354 696 354 564V410Q354 360 379 342ZM179 360Q223 360 266 403V472Q246 474 231 475T201 476Q167 476 147 461T127 416Q127 395 140 378T173 360H179Z" />
<glyph unicode="&#xab;" glyph-name="guillemotleft" horiz-adv-x="558" d="M517 418L378 257L522 91Q516 74 499 58T463 37L266 222Q260 235 260 254T266 288L459 472Q477 467 494 451T517 418ZM290 418L151 257L295 91Q289 74 272 58T236 37L39 222Q33 236 33
255T39 288L232 472Q250 467 267 451T290 418Z" />
<glyph unicode="&#xac;" glyph-name="logicalnot" horiz-adv-x="530" d="M379 256L331 255H51Q47 272 47 298T51 344H467L473 337V115Q454 111 428 111T378 115V209L379 256Z" />
<glyph unicode="&#xad;" glyph-name="uni00AD" horiz-adv-x="350" d="M299 222H51Q46 239 46 266T51 311H299Q304 293 304 266T299 222Z" />
<glyph unicode="&#xae;" glyph-name="registered" horiz-adv-x="593" d="M110 295Q34 371 34 481Q34 535 53 583T109 666T193 722T296 743Q350 743 399 723T483 667T538 583T558 481Q558 426 538 379T482 296T398 240T296 219Q186 219 110 295ZM158 622Q103 564
103 481Q103 440 117 404T158 341T219 298T296 282Q337 282 372 298T434 341T475 404T490 481Q490 521 475 557T436 621T374 665T296 681Q214 681 158 622ZM398 536Q398 487 348 470Q364 464 381 431L394 405Q404 386 416 377Q402 354 378 354Q354 353 337 385L312
431Q301 451 282 451H260V359Q243 354 230 354Q216 354 199 359V606L202 609Q234 610 260 610T308 611Q350 611 374 591T398 536ZM260 564V498Q276 500 290 500T314 502T329 511T335 531Q335 564 298 564H260Z" />
<glyph unicode="&#xaf;" glyph-name="overscore" horiz-adv-x="398" d="M340 575H59Q54 592 54 616T59 658H340Q344 639 344 617T340 575Z" />
<glyph unicode="&#xb0;" glyph-name="degree" horiz-adv-x="327" d="M163 378Q132 378 106 389T60 419T29 465T18 524Q18 556 29 583T60 630T106 661T163 672Q194 672 221 661T267 630T298 583T309 524Q309 493 298 467T268 421T222 390T163 378ZM115 580Q106
569 102 555T97 525Q97 492 114 470T163 448Q195 448 212 470T230 524Q230 557 212 579T163 601Q149 601 137 596T115 580Z" />
<glyph unicode="&#xb1;" glyph-name="plusminus" horiz-adv-x="530" d="M219 386L218 436V538Q238 542 265 542T312 538V436L311 386L358 387H463Q467 367 467 345T463 303H358L311 304L312 255V152Q293 148 266 148T218 152V255L219 304L172 303H67Q63 322 63
344T67 387H172L219 386ZM463 0H67Q63 20 63 42T67 86H463Q467 65 467 43T463 0Z" />
<glyph unicode="&#xb2;" glyph-name="twosuperior" horiz-adv-x="420" d="M353 418Q353 375 343 357T302 338H84Q55 376 55 392Q55 445 131 508L204 568Q226 586 237 603T248 641Q248 664 233 679T195 694Q151 694 128 638Q110 640 90 649T61 669Q75 714 112 743T207
773Q236 773 261 763T304 735T332 696T342 650Q342 601 322 570T260 506L204 462Q183 445 169 433T149 410Q174 414 195 416T234 418H353Z" />
<glyph unicode="&#xb3;" glyph-name="threesuperior" horiz-adv-x="420" d="M316 680L258 623Q247 612 229 601Q280 601 315 567T350 469Q350 438 338 413T303 371T249 344T181 334Q107 334 51 378Q57 413 86 439Q112 421 136 413T180 405Q216 405 237 425T259
474Q259 509 239 527T191 545Q179 545 169 543T150 536Q139 541 129 554T115 583L194 662Q213 681 233 694L231 697Q220 695 201 694T152 692H72Q69 699 68 708T67 727Q67 749 73 766H317Q325 749 329 737T333 715Q333 695 316 680Z" />
<glyph unicode="&#xb4;" glyph-name="acute" horiz-adv-x="398" d="M123 580L267 739Q290 731 311 712T340 671L169 538Q155 542 142 554T123 580Z" />
<glyph unicode="&#xb6;" glyph-name="paragraph" horiz-adv-x="671" d="M287 60V251H268Q217 251 176 265T105 308T59 377T42 472Q42 526 58 566T105 634T177 674T272 688Q285 688 313 687T386 684L392 678V78Q392 -56 345 -106T200 -156Q131 -156 70 -132Q70
-84 95 -53Q124 -63 150 -68T198 -74Q242 -74 264 -45T287 60ZM457 -133V677L463 683H643Q648 665 648 637Q648 609 643 592H604Q590 592 580 592T563 593V-133Q551 -135 537 -136T509 -137Q494 -137 481 -136T457 -133Z" />
<glyph unicode="&#xb7;" glyph-name="middot" horiz-adv-x="305" d="M95 333Q118 347 153 347Q186 347 202 339T219 284Q219 243 206 232T154 221Q136 221 123 223T101 231T89 250T86 284Q86 316 95 333Z" />
<glyph unicode="&#xb8;" glyph-name="cedilla" horiz-adv-x="398" d="M145 -74Q152 -52 158 -34T171 0H236Q229 -14 225 -23T219 -37Q261 -39 286 -63T312 -127Q312 -148 303 -165T277 -195T240 -215T194 -223Q145 -223 113 -203Q114 -177 134 -151Q146 -159 158
-162T182 -165Q202 -165 215 -156T229 -131Q229 -107 217 -98T186 -88Q172 -88 163 -92Q151 -88 145 -74Z" />
<glyph unicode="&#xb9;" glyph-name="onesuperior" horiz-adv-x="420" d="M59 628Q110 657 140 689T191 765Q210 770 231 770T274 765V416H357Q361 401 361 379T357 340H86Q82 359 82 380T86 416H188V575Q188 584 189 608T191 640Q162 600 98 572Q66 588 59 628Z" />
<glyph unicode="&#xba;" glyph-name="ordmasculine" horiz-adv-x="413" d="M321 655Q377 594 377 493Q377 450 367 414T335 350T281 308T206 292Q163 292 131 307T78 350T47 413T36 493Q36 536 46 573T77 637T130 680T206 696Q277 696 321 655ZM125 495Q125 362
207 362Q287 362 287 494Q287 627 207 627Q164 627 145 590T125 495Z" />
<glyph unicode="&#xbb;" glyph-name="guillemotright" horiz-adv-x="558" d="M42 92L180 253L36 418Q42 434 60 450T95 472L293 287Q306 254 293 222L99 37Q82 42 65 58T42 92ZM269 92L407 253L263 418Q269 434 287 450T322 472L520 287Q533 254 520 222L326 37Q309
42 292 58T269 92Z" />
<glyph unicode="&#xbc;" glyph-name="onequarter" horiz-adv-x="946" d="M292 803Q343 832 373 864T424 940Q443 945 464 945T507 940V591H590Q594 576 594 554T590 515H319Q315 534 315 555T319 591H421V750Q421 759 422 783T424 815Q395 775 331 747Q299 763
292 803ZM270 0L646 683Q666 689 699 689T748 683L371 0Q351 -6 318 -6T270 0ZM843 207L842 156H903Q906 142 906 121T899 82H842V4Q826 0 801 0T757 4V46L758 82L717 81H598Q578 113 578 131T593 180L710 433Q731 435 756 430T794 413L718 249Q686 181 667 156L669
154Q694 156 740 156H758Q757 164 757 180V213Q757 242 773 259T815 276H840L843 273V207Z" />
<glyph unicode="&#xbd;" glyph-name="onehalf" horiz-adv-x="946" d="M292 803Q343 832 373 864T424 940Q443 945 464 945T507 940V591H590Q594 576 594 554T590 515H319Q315 534 315 555T319 591H421V750Q421 759 422 783T424 815Q395 775 331 747Q299 763 292
803ZM255 0L631 683Q651 689 684 689T733 683L356 0Q336 -6 303 -6T255 0ZM897 81Q897 38 887 20T846 1H628Q599 39 599 55Q599 108 675 171L748 231Q770 249 781 266T792 304Q792 327 777 342T739 357Q695 357 672 301Q654 303 634 312T605 332Q619 377 656 406T751
436Q780 436 805 426T848 398T876 359T886 313Q886 264 866 233T804 169L748 125Q727 108 713 96T693 73Q718 77 739 79T778 81H897Z" />
<glyph unicode="&#xbe;" glyph-name="threequarters" horiz-adv-x="946" d="M316 856L258 799Q247 788 229 777Q280 777 315 743T350 645Q350 614 338 589T303 547T249 520T181 510Q107 510 51 554Q57 589 86 615Q112 597 136 589T180 581Q216 581 237 601T259
650Q259 685 239 703T191 721Q179 721 169 719T150 712Q139 717 129 730T115 759L194 838Q213 857 233 870L231 873Q220 871 201 870T152 868H72Q69 875 68 884T67 903Q67 925 73 942H317Q325 925 329 913T333 891Q333 871 316 856ZM255 0L631 683Q651 689 684
689T733 683L356 0Q336 -6 303 -6T255 0ZM838 207L837 156H898Q901 142 901 121T894 82H837V4Q821 0 796 0T752 4V46L753 82L712 81H593Q573 113 573 131T588 180L705 433Q726 435 751 430T789 413L713 249Q681 181 662 156L664 154Q689 156 735 156H753Q752 164
752 180V213Q752 242 768 259T810 276H835L838 273V207Z" />
<glyph unicode="&#xbf;" glyph-name="questiondown" horiz-adv-x="396" d="M388 -153Q293 -204 202 -204Q111 -204 61 -158T11 -33Q11 87 142 161L204 196L212 297Q219 300 230 301T252 303Q277 303 292 297L298 148L289 137L240 113Q177 82 150 46T122 -27Q122
-63 148 -87T223 -112Q249 -112 281 -104T350 -75Q364 -87 375 -110T388 -153ZM308 396Q287 384 250 384Q234 384 222 385T202 392T190 409T186 442Q186 464 190 476T203 493T224 500T250 502Q264 502 276 501T298 495T312 477T316 442Q316 410 308 396Z" />
<glyph unicode="&#xc0;" glyph-name="Agrave" horiz-adv-x="611" d="M429 166L369 165H232L174 166L121 -1Q104 -5 76 -5T23 2L20 7L246 683Q267 687 307 687T367 683L591 7Q570 -7 537 -7T490 5T466 49L429 166ZM201 252L252 253H352Q393 252 402 252L356 397Q321
509 303 578H298Q286 523 259 433L201 252ZM218 902L421 782Q413 743 390 728L172 818Q175 842 189 866T218 902Z" />
<glyph unicode="&#xc1;" glyph-name="Aacute" horiz-adv-x="611" d="M429 166L369 165H232L174 166L121 -1Q104 -5 76 -5T23 2L20 7L246 683Q267 687 307 687T367 683L591 7Q570 -7 537 -7T490 5T466 49L429 166ZM201 252L252 253H352Q393 252 402 252L356 397Q321
509 303 578H298Q286 523 259 433L201 252ZM207 782L410 902Q425 891 439 867T456 818L238 728Q227 735 218 751T207 782Z" />
<glyph unicode="&#xc2;" glyph-name="Acircumflex" horiz-adv-x="611" d="M429 166L369 165H232L174 166L121 -1Q104 -5 76 -5T23 2L20 7L246 683Q267 687 307 687T367 683L591 7Q570 -7 537 -7T490 5T466 49L429 166ZM201 252L252 253H352Q393 252 402 252L356
397Q321 509 303 578H298Q286 523 259 433L201 252ZM419 737L306 812L191 729Q178 734 164 747T146 775L260 888Q307 897 352 888L464 782Q459 766 446 754T419 737Z" />
<glyph unicode="&#xc3;" glyph-name="Atilde" horiz-adv-x="611" d="M429 166L369 165H232L174 166L121 -1Q104 -5 76 -5T23 2L20 7L246 683Q267 687 307 687T367 683L591 7Q570 -7 537 -7T490 5T466 49L429 166ZM201 252L252 253H352Q393 252 402 252L356 397Q321
509 303 578H298Q286 523 259 433L201 252ZM318 756L262 783Q253 787 245 789T229 792Q218 793 210 787T190 767L178 753Q163 753 148 762T126 784L135 804Q151 839 179 858T239 877Q268 877 296 861L352 835Q359 831 366 829T382 826Q402 825 424 851L436 865Q473
864 488 833L479 814Q445 741 377 741Q352 741 318 756Z" />
<glyph unicode="&#xc4;" glyph-name="Adieresis" horiz-adv-x="611" d="M429 166L369 165H232L174 166L121 -1Q104 -5 76 -5T23 2L20 7L246 683Q267 687 307 687T367 683L591 7Q570 -7 537 -7T490 5T466 49L429 166ZM201 252L252 253H352Q393 252 402 252L356
397Q321 509 303 578H298Q286 523 259 433L201 252ZM364 830Q382 842 411 842Q439 842 454 834T470 789Q470 756 459 746T411 736Q376 736 365 747T354 789Q354 800 356 811T364 830ZM153 830Q162 836 174 839T201 842Q228 842 244 834T260 789Q260 756 248 746T201
736Q163 736 154 749T144 789Q144 812 153 830Z" />
<glyph unicode="&#xc5;" glyph-name="Aring" horiz-adv-x="611" d="M429 166L232 165L174 166L121 -1Q113 -3 102 -4T79 -5Q65 -5 51 -4T23 2L20 7L245 681Q186 713 186 781Q186 804 195 824T220 860T258 885T306 894Q360 894 394 862T428 781Q428 712 367 681L591
7Q569 -7 537 -7Q504 -7 490 5T466 49L429 166ZM201 252L352 253L402 252L356 397Q338 454 325 498T303 578H298Q286 524 259 433L201 252ZM307 835Q285 835 271 820T256 780Q256 754 272 740T311 726Q334 726 345 743T356 780Q356 801 345 818T307 835Z" />
<glyph unicode="&#xc6;" glyph-name="AE" horiz-adv-x="876" d="M401 166L346 165H257L204 166L123 -1Q103 -5 74 -5T19 2L15 8L343 673Q364 683 407 683H809Q813 662 813 640T804 593Q654 593 503 593L504 528V388L566 389H755Q760 371 760 345T755 301H566Q527
301 504 302V139Q504 130 504 114T503 87Q532 90 569 90H829Q829 63 826 49Q819 -1 758 -1H461Q433 -1 417 16T401 65V166ZM347 253L401 252V578H396Q362 494 333 433L245 252L286 253H347Z" />
<glyph unicode="&#xc7;" glyph-name="Ccedilla" horiz-adv-x="604" d="M262 -74Q272 -40 283 -11Q220 -6 176 25T103 104T62 212T49 338Q49 428 70 495T127 606T213 673T317 696Q374 696 419 680T497 637T547 575T564 501Q564 441 504 441Q501 441 494 441T480
442T466 446T460 453Q460 484 452 512T428 563T384 597T318 610Q241 610 201 541T161 343Q161 215 204 148T331 80Q415 80 506 156Q547 129 559 87Q476 4 347 -11Q337 -30 336 -37Q378 -39 403 -63T429 -127Q429 -148 420 -165T394 -195T357 -215T311 -223Q262
-223 230 -203Q231 -177 251 -151Q273 -165 297 -165Q323 -165 334 -154T346 -126Q346 -106 332 -97T302 -87Q290 -87 280 -92Q268 -88 262 -74Z" />
<glyph unicode="&#xc8;" glyph-name="Egrave" horiz-adv-x="566" d="M195 138L194 87Q224 90 260 90H519Q519 63 516 49Q507 -1 448 -1H151Q123 -1 107 16T90 65V677L97 683H499Q502 667 502 641T494 593H194L195 528V388L257 389H445Q450 371 450 345T445 301H257Q218
301 195 302V138ZM210 902L413 782Q405 743 382 728L164 818Q167 842 181 866T210 902Z" />
<glyph unicode="&#xc9;" glyph-name="Eacute" horiz-adv-x="566" d="M195 138L194 87Q224 90 260 90H519Q519 63 516 49Q507 -1 448 -1H151Q123 -1 107 16T90 65V677L97 683H499Q502 667 502 641T494 593H194L195 528V388L257 389H445Q450 371 450 345T445 301H257Q218
301 195 302V138ZM198 782L401 902Q416 891 430 867T447 818L229 728Q218 735 209 751T198 782Z" />
<glyph unicode="&#xca;" glyph-name="Ecircumflex" horiz-adv-x="566" d="M195 138L194 87Q224 90 260 90H519Q519 63 516 49Q507 -1 448 -1H151Q123 -1 107 16T90 65V677L97 683H499Q502 667 502 641T494 593H194L195 528V388L257 389H445Q450 371 450 345T445
301H257Q218 301 195 302V138ZM411 737L298 812L183 729Q170 734 156 747T138 775L252 888Q299 897 344 888L456 782Q451 766 438 754T411 737Z" />
<glyph unicode="&#xcb;" glyph-name="Edieresis" horiz-adv-x="566" d="M195 138L194 87Q224 90 260 90H519Q519 63 516 49Q507 -1 448 -1H151Q123 -1 107 16T90 65V677L97 683H499Q502 667 502 641T494 593H194L195 528V388L257 389H445Q450 371 450 345T445
301H257Q218 301 195 302V138ZM356 830Q374 842 403 842Q431 842 446 834T462 789Q462 756 451 746T403 736Q368 736 357 747T346 789Q346 800 348 811T356 830ZM145 830Q154 836 166 839T193 842Q220 842 236 834T252 789Q252 756 240 746T193 736Q155 736 146
749T136 789Q136 812 145 830Z" />
<glyph unicode="&#xcc;" glyph-name="Igrave" horiz-adv-x="294" d="M94 0V683Q114 687 146 687T200 683V0Q179 -4 147 -4T94 0ZM316 902L519 782Q511 743 488 728L270 818Q273 842 287 866T316 902Z" />
<glyph unicode="&#xcd;" glyph-name="Iacute" horiz-adv-x="294" d="M94 0V683Q114 687 146 687T200 683V0Q179 -4 147 -4T94 0ZM303 782L506 902Q521 891 535 867T552 818L334 728Q323 735 314 751T303 782Z" />
<glyph unicode="&#xce;" glyph-name="Icircumflex" horiz-adv-x="294" d="M94 0V683Q114 687 146 687T200 683V0Q179 -4 147 -4T94 0ZM516 737L403 812L288 729Q275 734 261 747T243 775L357 888Q404 897 449 888L561 782Q556 766 543 754T516 737Z" />
<glyph unicode="&#xcf;" glyph-name="Idieresis" horiz-adv-x="294" d="M94 0V683Q114 687 146 687T200 683V0Q179 -4 147 -4T94 0ZM461 830Q479 842 508 842Q536 842 551 834T567 789Q567 756 556 746T508 736Q473 736 462 747T451 789Q451 800 453 811T461 830ZM250
830Q259 836 271 839T298 842Q325 842 341 834T357 789Q357 756 345 746T298 736Q260 736 251 749T241 789Q241 812 250 830Z" />
<glyph unicode="&#xd0;" glyph-name="Eth" horiz-adv-x="664" d="M507 46Q492 34 471 25T427 9T379 -1T332 -5Q309 -5 255 -4T113 -1L106 6V302H29Q27 310 26 321T25 345Q25 357 26 368T29 390H106V677L113 684Q200 687 333 687Q414 687 468 660T554 586T599 476T613
341Q613 241 591 169T507 46ZM333 601H211V390H365Q367 378 368 367T370 345Q370 325 365 302H211V81H333Q382 81 414 100T466 153T494 236T502 342Q502 467 464 534T333 601Z" />
<glyph unicode="&#xd1;" glyph-name="Ntilde" horiz-adv-x="680" d="M583 687L589 682V1Q561 -4 525 -4T461 0L248 419Q216 486 185 558L181 557Q190 402 190 312V0Q166 -4 140 -4T91 0V682Q119 687 154 687T218 683L429 264Q443 234 466 183T495 119L499 120Q491
248 491 372V621Q491 657 503 672T548 687H583ZM354 756L298 783Q289 787 281 789T265 792Q254 793 246 787T226 767L214 753Q199 753 184 762T162 784L171 804Q187 839 215 858T275 877Q304 877 332 861L388 835Q395 831 402 829T418 826Q438 825 460 851L472
865Q509 864 524 833L515 814Q481 741 413 741Q388 741 354 756Z" />
<glyph unicode="&#xd2;" glyph-name="Ograve" horiz-adv-x="658" d="M192 521Q175 479 168 436T161 347Q161 296 168 247T194 158T246 96T330 72Q385 72 417 99T467 168T490 256T496 342Q496 382 491 429T468 516T418 584T329 611Q278 611 244 587T192 521ZM156
47Q49 139 49 341Q49 423 67 488T121 600T209 671T329 696Q396 696 448 672T536 601T589 489T608 341Q608 259 590 194T536 82T449 12T329 -13Q223 -13 156 47ZM240 902L443 782Q435 743 412 728L194 818Q197 842 211 866T240 902Z" />
<glyph unicode="&#xd3;" glyph-name="Oacute" horiz-adv-x="658" d="M192 521Q175 479 168 436T161 347Q161 296 168 247T194 158T246 96T330 72Q385 72 417 99T467 168T490 256T496 342Q496 382 491 429T468 516T418 584T329 611Q278 611 244 587T192 521ZM156
47Q49 139 49 341Q49 423 67 488T121 600T209 671T329 696Q396 696 448 672T536 601T589 489T608 341Q608 259 590 194T536 82T449 12T329 -13Q223 -13 156 47ZM227 782L430 902Q445 891 459 867T476 818L258 728Q247 735 238 751T227 782Z" />
<glyph unicode="&#xd4;" glyph-name="Ocircumflex" horiz-adv-x="658" d="M192 521Q175 479 168 436T161 347Q161 296 168 247T194 158T246 96T330 72Q385 72 417 99T467 168T490 256T496 342Q496 382 491 429T468 516T418 584T329 611Q278 611 244 587T192 521ZM156
47Q49 139 49 341Q49 423 67 488T121 600T209 671T329 696Q396 696 448 672T536 601T589 489T608 341Q608 259 590 194T536 82T449 12T329 -13Q223 -13 156 47ZM441 737L328 812L213 729Q200 734 186 747T168 775L282 888Q329 897 374 888L486 782Q481 766 468
754T441 737Z" />
<glyph unicode="&#xd5;" glyph-name="Otilde" horiz-adv-x="658" d="M192 521Q175 479 168 436T161 347Q161 296 168 247T194 158T246 96T330 72Q385 72 417 99T467 168T490 256T496 342Q496 382 491 429T468 516T418 584T329 611Q278 611 244 587T192 521ZM156
47Q49 139 49 341Q49 423 67 488T121 600T209 671T329 696Q396 696 448 672T536 601T589 489T608 341Q608 259 590 194T536 82T449 12T329 -13Q223 -13 156 47ZM337 756L281 783Q272 787 264 789T248 792Q237 793 229 787T209 767L197 753Q182 753 167 762T145
784L154 804Q170 839 198 858T258 877Q287 877 315 861L371 835Q378 831 385 829T401 826Q421 825 443 851L455 865Q492 864 507 833L498 814Q464 741 396 741Q371 741 337 756Z" />
<glyph unicode="&#xd6;" glyph-name="Odieresis" horiz-adv-x="658" d="M192 521Q175 479 168 436T161 347Q161 296 168 247T194 158T246 96T330 72Q385 72 417 99T467 168T490 256T496 342Q496 382 491 429T468 516T418 584T329 611Q278 611 244 587T192 521ZM156
47Q49 139 49 341Q49 423 67 488T121 600T209 671T329 696Q396 696 448 672T536 601T589 489T608 341Q608 259 590 194T536 82T449 12T329 -13Q223 -13 156 47ZM386 830Q404 842 433 842Q461 842 476 834T492 789Q492 756 481 746T433 736Q398 736 387 747T376
789Q376 800 378 811T386 830ZM175 830Q184 836 196 839T223 842Q250 842 266 834T282 789Q282 756 270 746T223 736Q185 736 176 749T166 789Q166 812 175 830Z" />
<glyph unicode="&#xd7;" glyph-name="multiply" horiz-adv-x="530" d="M264 230L136 100Q119 108 100 126T72 165Q171 263 178 270Q190 282 201 293L171 324L72 422Q92 468 136 487L235 388Q262 358 264 356Q272 363 282 373T295 387L393 487Q436 468 458 422L359
324Q354 318 342 307T327 293Q357 266 359 264L458 165Q437 116 393 101L295 200L264 230Z" />
<glyph unicode="&#xd8;" glyph-name="Oslash" horiz-adv-x="659" d="M49 342Q49 415 66 479T118 592T205 668T330 696Q406 696 456 668L496 737Q514 735 534 724T566 699L520 619Q610 521 610 342Q610 270 594 206T543 93T455 16T330 -13Q257 -13 202 15L164 -53Q146
-51 126 -40T94 -15L138 64Q49 162 49 342ZM190 161L413 589Q378 613 329 613Q280 613 247 591T195 530T167 442T158 336Q158 230 190 161ZM468 522L245 94Q282 70 331 70Q379 70 411 92T463 153T491 240T500 345Q500 450 468 522Z" />
<glyph unicode="&#xd9;" glyph-name="Ugrave" horiz-adv-x="669" d="M587 683V240Q587 118 519 53T334 -13Q218 -13 150 52T82 240V681L88 687H129Q161 687 174 671T188 619V240Q188 158 225 116T334 73Q480 73 480 240V683Q491 685 505 686T533 687Q548 687 562
686T587 683ZM243 902L446 782Q438 743 415 728L197 818Q200 842 214 866T243 902Z" />
<glyph unicode="&#xda;" glyph-name="Uacute" horiz-adv-x="669" d="M587 683V240Q587 118 519 53T334 -13Q218 -13 150 52T82 240V681L88 687H129Q161 687 174 671T188 619V240Q188 158 225 116T334 73Q480 73 480 240V683Q491 685 505 686T533 687Q548 687 562
686T587 683ZM232 782L435 902Q450 891 464 867T481 818L263 728Q252 735 243 751T232 782Z" />
<glyph unicode="&#xdb;" glyph-name="Ucircumflex" horiz-adv-x="669" d="M587 683V240Q587 118 519 53T334 -13Q218 -13 150 52T82 240V681L88 687H129Q161 687 174 671T188 619V240Q188 158 225 116T334 73Q480 73 480 240V683Q491 685 505 686T533 687Q548
687 562 686T587 683ZM444 737L331 812L216 729Q203 734 189 747T171 775L285 888Q332 897 377 888L489 782Q484 766 471 754T444 737Z" />
<glyph unicode="&#xdc;" glyph-name="Udieresis" horiz-adv-x="669" d="M587 683V240Q587 118 519 53T334 -13Q218 -13 150 52T82 240V681L88 687H129Q161 687 174 671T188 619V240Q188 158 225 116T334 73Q480 73 480 240V683Q491 685 505 686T533 687Q548 687
562 686T587 683ZM391 830Q409 842 438 842Q466 842 481 834T497 789Q497 756 486 746T438 736Q403 736 392 747T381 789Q381 800 383 811T391 830ZM180 830Q189 836 201 839T228 842Q255 842 271 834T287 789Q287 756 275 746T228 736Q190 736 181 749T171 789Q171
812 180 830Z" />
<glyph unicode="&#xdd;" glyph-name="Yacute" horiz-adv-x="503" d="M303 454L394 683Q413 688 440 688T491 680L496 673L306 219V0Q283 -4 251 -4T199 0V221L9 671Q43 690 70 690T110 680T133 644L212 452Q232 402 254 327H259Q270 367 303 454ZM156 782L359
902Q374 891 388 867T405 818L187 728Q176 735 167 751T156 782Z" />
<glyph unicode="&#xde;" glyph-name="Thorn" horiz-adv-x="571" d="M91 0V683Q101 685 115 686T143 687Q158 687 172 686T197 683V581Q231 582 257 582T301 583Q353 583 395 569T468 528T514 460T531 365Q531 311 515 270T468 202T396 160T301 145H197V0Q186 -2
172 -3T143 -4Q129 -4 115 -3T91 0ZM197 229L297 230Q331 230 354 241T392 270T413 312T420 364Q420 391 414 415T393 458T356 487T300 498Q268 498 242 498T197 499V229Z" />
<glyph unicode="&#xdf;" glyph-name="germandbls" horiz-adv-x="627" d="M105 0V391L19 390Q17 398 16 408T15 431Q15 442 16 453T19 473L105 471V506Q105 599 164 649T324 699Q374 699 414 685T483 645T527 582T543 500Q543 462 528 422H526L528 421Q490 411
468 392T446 350Q446 337 454 323T483 291L520 258Q594 192 594 128Q594 97 581 71T544 27T488 -2T417 -13Q344 -13 284 16Q285 34 294 56T318 90Q339 78 360 73T401 67Q436 67 460 83T484 126Q483 140 475 158T444 195L403 230Q369 259 353 287T337 341Q337 377
363 409T435 460Q439 480 439 495Q439 549 410 584T323 619Q210 619 210 495V0Q199 -2 185 -3T157 -4Q142 -4 129 -3T105 0Z" />
<glyph unicode="&#xe0;" glyph-name="agrave" d="M461 46Q449 10 422 -7Q363 4 342 55Q271 -13 196 -13Q158 -13 130 -1T82 31T53 78T43 134Q43 216 95 258T235 300Q260 300 284 299T331 293V332Q331 421 249 421Q192 421 92 383Q63 408 62 458Q164 504 269 504Q347
504 390 463T433 337V132Q433 70 461 46ZM213 69Q277 69 331 129V224Q311 226 289 227T243 228Q197 228 172 206T146 146Q146 110 164 90T213 69ZM184 739L328 580Q314 547 283 538L112 671Q120 693 140 712T184 739Z" />
<glyph unicode="&#xe1;" glyph-name="aacute" d="M461 46Q449 10 422 -7Q363 4 342 55Q271 -13 196 -13Q158 -13 130 -1T82 31T53 78T43 134Q43 216 95 258T235 300Q260 300 284 299T331 293V332Q331 421 249 421Q192 421 92 383Q63 408 62 458Q164 504 269 504Q347
504 390 463T433 337V132Q433 70 461 46ZM213 69Q277 69 331 129V224Q311 226 289 227T243 228Q197 228 172 206T146 146Q146 110 164 90T213 69ZM169 580L313 739Q336 731 357 712T386 671L215 538Q201 542 188 554T169 580Z" />
<glyph unicode="&#xe2;" glyph-name="acircumflex" d="M461 46Q449 10 422 -7Q363 4 342 55Q271 -13 196 -13Q158 -13 130 -1T82 31T53 78T43 134Q43 216 95 258T235 300Q260 300 284 299T331 293V332Q331 421 249 421Q192 421 92 383Q63 408 62 458Q164 504 269
504Q347 504 390 463T433 337V132Q433 70 461 46ZM213 69Q277 69 331 129V224Q311 226 289 227T243 228Q197 228 172 206T146 146Q146 110 164 90T213 69ZM340 546L247 637L147 541Q116 553 99 584L205 717Q243 730 292 718L390 592Q375 559 340 546Z" />
<glyph unicode="&#xe3;" glyph-name="atilde" d="M461 46Q449 10 422 -7Q363 4 342 55Q271 -13 196 -13Q158 -13 130 -1T82 31T53 78T43 134Q43 216 95 258T235 300Q260 300 284 299T331 293V332Q331 421 249 421Q192 421 92 383Q63 408 62 458Q164 504 269 504Q347
504 390 463T433 337V132Q433 70 461 46ZM213 69Q277 69 331 129V224Q311 226 289 227T243 228Q197 228 172 206T146 146Q146 110 164 90T213 69ZM256 571L201 598Q194 602 187 604T171 607Q148 608 130 582L119 568Q104 568 89 577T68 600L77 620Q110 693 177
693Q204 693 234 678L289 650Q296 646 303 644T318 641Q328 641 338 646T360 667L371 681Q386 681 401 672T422 649L413 629Q380 556 313 556Q287 556 256 571Z" />
<glyph unicode="&#xe4;" glyph-name="adieresis" d="M461 46Q449 10 422 -7Q363 4 342 55Q271 -13 196 -13Q158 -13 130 -1T82 31T53 78T43 134Q43 216 95 258T235 300Q260 300 284 299T331 293V332Q331 421 249 421Q192 421 92 383Q63 408 62 458Q164 504 269
504Q347 504 390 463T433 337V132Q433 70 461 46ZM213 69Q277 69 331 129V224Q311 226 289 227T243 228Q197 228 172 206T146 146Q146 110 164 90T213 69ZM290 573Q285 582 284 592T282 612Q282 644 294 654T338 664Q367 664 380 656T394 612Q394 579 383 570T339
561Q309 561 290 573ZM104 573Q99 581 98 591T96 612Q96 645 111 654T152 664Q183 664 195 654T208 612Q208 580 196 571T151 561Q120 561 104 573Z" />
<glyph unicode="&#xe5;" glyph-name="aring" d="M461 46Q449 10 422 -7Q363 4 342 55Q271 -13 196 -13Q158 -13 130 -1T82 31T53 78T43 134Q43 216 95 258T235 300Q260 300 284 299T331 293V332Q331 421 249 421Q192 421 92 383Q63 408 62 458Q164 504 269 504Q347
504 390 463T433 337V132Q433 70 461 46ZM213 69Q277 69 331 129V224Q311 226 289 227T243 228Q197 228 172 206T146 146Q146 110 164 90T213 69ZM245 539Q219 539 197 548T158 572T133 608T124 652Q124 676 133 697T158 733T196 757T245 766Q272 766 294 757T332
733T357 697T366 652Q366 629 357 609T332 573T293 548T245 539ZM209 691Q201 683 198 673T195 652Q195 629 208 614T245 598Q267 598 281 613T295 652Q295 675 281 691T245 707Q223 707 209 691Z" />
<glyph unicode="&#xe6;" glyph-name="ae" horiz-adv-x="781" d="M726 214H435Q438 146 463 109T551 71Q613 71 688 110Q714 85 720 43Q643 -13 531 -13Q420 -13 370 70Q290 -13 191 -13Q156 -13 129 -2T82 30T53 78T43 135Q43 217 95 258T235 300Q261 300 284
299T331 293V333Q331 421 250 421Q188 421 92 383Q63 408 62 458Q164 504 260 504Q356 504 396 443Q450 507 540 507Q585 507 620 491T681 447T720 379T734 293Q734 272 732 253T726 214ZM213 69Q288 69 342 138Q333 175 330 223Q312 225 291 226T245 228Q196 228
171 206T146 146Q146 110 164 90T213 69ZM536 430Q442 430 435 289H634V301Q634 358 611 394T536 430Z" />
<glyph unicode="&#xe7;" glyph-name="ccedilla" horiz-adv-x="471" d="M195 -74Q201 -46 216 -11Q174 -6 142 15T88 69T55 145T44 239Q44 307 61 357T106 441T172 490T252 507Q295 507 328 494T385 460T421 412T434 356Q434 299 382 299Q356 299 339 303V314Q339
427 251 427Q203 427 177 381T151 244Q151 72 264 72Q320 72 385 122Q399 114 412 96T429 61Q368 0 280 -11Q270 -30 269 -37Q311 -39 336 -63T362 -127Q362 -148 353 -165T327 -195T290 -215T244 -223Q195 -223 163 -203Q165 -173 184 -151Q206 -165 230 -165Q256
-165 267 -154T278 -126Q278 -106 265 -97T235 -87Q224 -87 212 -92Q198 -86 195 -74Z" />
<glyph unicode="&#xe8;" glyph-name="egrave" horiz-adv-x="500" d="M444 214H150Q153 145 179 108T269 71Q299 71 333 80T405 109Q430 86 438 43Q358 -13 250 -13Q193 -13 154 7T91 62T55 145T44 250Q44 305 58 352T98 434T162 487T249 507Q297 507 334 491T398
447T437 379T451 293Q451 273 450 254T444 214ZM252 430Q157 430 150 289H352V302Q352 359 328 394T252 430ZM195 739L339 580Q325 547 294 538L123 671Q131 693 151 712T195 739Z" />
<glyph unicode="&#xe9;" glyph-name="eacute" horiz-adv-x="500" d="M444 214H150Q153 145 179 108T269 71Q299 71 333 80T405 109Q430 86 438 43Q358 -13 250 -13Q193 -13 154 7T91 62T55 145T44 250Q44 305 58 352T98 434T162 487T249 507Q297 507 334 491T398
447T437 379T451 293Q451 273 450 254T444 214ZM252 430Q157 430 150 289H352V302Q352 359 328 394T252 430ZM180 580L324 739Q347 731 368 712T397 671L226 538Q212 542 199 554T180 580Z" />
<glyph unicode="&#xea;" glyph-name="ecircumflex" horiz-adv-x="500" d="M444 214H150Q153 145 179 108T269 71Q299 71 333 80T405 109Q430 86 438 43Q358 -13 250 -13Q193 -13 154 7T91 62T55 145T44 250Q44 305 58 352T98 434T162 487T249 507Q297 507 334
491T398 447T437 379T451 293Q451 273 450 254T444 214ZM252 430Q157 430 150 289H352V302Q352 359 328 394T252 430ZM350 546L257 637L157 541Q126 553 109 584L215 717Q253 730 302 718L400 592Q385 559 350 546Z" />
<glyph unicode="&#xeb;" glyph-name="edieresis" horiz-adv-x="500" d="M444 214H150Q153 145 179 108T269 71Q299 71 333 80T405 109Q430 86 438 43Q358 -13 250 -13Q193 -13 154 7T91 62T55 145T44 250Q44 305 58 352T98 434T162 487T249 507Q297 507 334 491T398
447T437 379T451 293Q451 273 450 254T444 214ZM252 430Q157 430 150 289H352V302Q352 359 328 394T252 430ZM300 573Q295 582 294 592T292 612Q292 644 304 654T348 664Q377 664 390 656T404 612Q404 579 393 570T349 561Q319 561 300 573ZM114 573Q109 581 108
591T106 612Q106 645 121 654T162 664Q193 664 205 654T218 612Q218 580 206 571T161 561Q130 561 114 573Z" />
<glyph unicode="&#xec;" glyph-name="igrave" horiz-adv-x="271" d="M195 408V0Q176 -4 144 -4T92 0V366Q92 394 82 406T48 418H37Q32 440 32 455T37 493Q70 497 100 497H114Q152 497 173 473T195 408ZM321 739L465 580Q451 547 420 538L249 671Q257 693 277 712T321
739Z" />
<glyph unicode="&#xed;" glyph-name="iacute" horiz-adv-x="271" d="M195 408V0Q176 -4 144 -4T92 0V366Q92 394 82 406T48 418H37Q32 440 32 455T37 493Q70 497 100 497H114Q152 497 173 473T195 408ZM307 580L451 739Q474 731 495 712T524 671L353 538Q339 542
326 554T307 580Z" />
<glyph unicode="&#xee;" glyph-name="icircumflex" horiz-adv-x="271" d="M195 408V0Q176 -4 144 -4T92 0V366Q92 394 82 406T48 418H37Q32 440 32 455T37 493Q70 497 100 497H114Q152 497 173 473T195 408ZM477 546L384 637L284 541Q253 553 236 584L342 717Q380
730 429 718L527 592Q512 559 477 546Z" />
<glyph unicode="&#xef;" glyph-name="idieresis" horiz-adv-x="271" d="M195 408V0Q176 -4 144 -4T92 0V366Q92 394 82 406T48 418H37Q32 440 32 455T37 493Q70 497 100 497H114Q152 497 173 473T195 408ZM427 573Q422 582 421 592T419 612Q419 644 431 654T475
664Q504 664 517 656T531 612Q531 579 520 570T476 561Q446 561 427 573ZM241 573Q236 581 235 591T233 612Q233 645 248 654T289 664Q320 664 332 654T345 612Q345 580 333 571T288 561Q257 561 241 573Z" />
<glyph unicode="&#xf0;" glyph-name="eth" horiz-adv-x="517" d="M111 572L197 631Q180 645 160 657T117 682Q120 701 132 720T158 748Q221 721 272 682L359 742Q392 717 396 688L323 638Q474 487 474 245Q474 187 460 140T418 58T350 6T258 -13Q206 -13 166 6T99
58T57 138T42 238Q42 292 56 337T98 416T164 468T253 487Q286 487 325 470Q302 531 248 586L149 517Q119 539 111 572ZM368 245Q368 326 352 380Q308 410 259 410Q149 410 149 237Q149 65 258 65Q368 65 368 245Z" />
<glyph unicode="&#xf1;" glyph-name="ntilde" horiz-adv-x="546" d="M472 339V106Q472 47 489 15Q463 -7 428 -7Q394 -7 382 9T369 59V313Q369 365 356 387T309 409Q276 409 242 393T181 347V0Q164 -4 130 -4Q114 -4 101 -3T78 0V492L84 498H123Q177 498 180 436Q253
503 339 503Q406 503 439 459T472 339ZM289 571L234 598Q227 602 220 604T204 607Q181 608 163 582L152 568Q137 568 122 577T101 600L110 620Q143 693 210 693Q237 693 267 678L322 650Q329 646 336 644T351 641Q361 641 371 646T393 667L404 681Q419 681 434
672T455 649L446 629Q413 556 346 556Q320 556 289 571Z" />
<glyph unicode="&#xf2;" glyph-name="ograve" horiz-adv-x="520" d="M405 42Q350 -13 260 -13Q208 -13 168 5T101 58T59 140T44 247Q44 305 58 353T100 435T168 488T260 507Q312 507 352 489T419 436T461 353T476 247Q476 113 405 42ZM260 428Q151 428 151 247Q151
66 260 66Q370 66 370 247Q370 428 260 428ZM199 739L343 580Q329 547 298 538L127 671Q135 693 155 712T199 739Z" />
<glyph unicode="&#xf3;" glyph-name="oacute" horiz-adv-x="520" d="M405 42Q350 -13 260 -13Q208 -13 168 5T101 58T59 140T44 247Q44 305 58 353T100 435T168 488T260 507Q312 507 352 489T419 436T461 353T476 247Q476 113 405 42ZM260 428Q151 428 151 247Q151
66 260 66Q370 66 370 247Q370 428 260 428ZM184 580L328 739Q351 731 372 712T401 671L230 538Q216 542 203 554T184 580Z" />
<glyph unicode="&#xf4;" glyph-name="ocircumflex" horiz-adv-x="520" d="M405 42Q350 -13 260 -13Q208 -13 168 5T101 58T59 140T44 247Q44 305 58 353T100 435T168 488T260 507Q312 507 352 489T419 436T461 353T476 247Q476 113 405 42ZM260 428Q151 428 151
247Q151 66 260 66Q370 66 370 247Q370 428 260 428ZM355 546L262 637L162 541Q131 553 114 584L220 717Q258 730 307 718L405 592Q390 559 355 546Z" />
<glyph unicode="&#xf5;" glyph-name="otilde" horiz-adv-x="520" d="M405 42Q350 -13 260 -13Q208 -13 168 5T101 58T59 140T44 247Q44 305 58 353T100 435T168 488T260 507Q312 507 352 489T419 436T461 353T476 247Q476 113 405 42ZM260 428Q151 428 151 247Q151
66 260 66Q370 66 370 247Q370 428 260 428ZM271 571L216 598Q209 602 202 604T186 607Q163 608 145 582L134 568Q119 568 104 577T83 600L92 620Q125 693 192 693Q219 693 249 678L304 650Q311 646 318 644T333 641Q343 641 353 646T375 667L386 681Q401 681 416
672T437 649L428 629Q395 556 328 556Q302 556 271 571Z" />
<glyph unicode="&#xf6;" glyph-name="odieresis" horiz-adv-x="520" d="M405 42Q350 -13 260 -13Q208 -13 168 5T101 58T59 140T44 247Q44 305 58 353T100 435T168 488T260 507Q312 507 352 489T419 436T461 353T476 247Q476 113 405 42ZM260 428Q151 428 151
247Q151 66 260 66Q370 66 370 247Q370 428 260 428ZM305 573Q300 582 299 592T297 612Q297 644 309 654T353 664Q382 664 395 656T409 612Q409 579 398 570T354 561Q324 561 305 573ZM119 573Q114 581 113 591T111 612Q111 645 126 654T167 664Q198 664 210 654T223
612Q223 580 211 571T166 561Q135 561 119 573Z" />
<glyph unicode="&#xf7;" glyph-name="divide" horiz-adv-x="530" d="M213 429Q204 447 204 470Q204 493 213 514Q234 526 266 526Q284 526 296 523T314 515T323 499T326 470Q323 432 313 426T265 417Q229 417 213 429ZM213 72Q204 91 204 115Q204 133 208 145T220
161T239 167T266 169Q298 167 311 162T326 115Q326 103 324 93T320 75T302 64T266 60Q232 60 213 72ZM474 250H56Q54 258 53 269T52 293Q52 319 56 339H474Q478 319 478 293Q478 281 477 270T474 250Z" />
<glyph unicode="&#xf8;" glyph-name="oslash" horiz-adv-x="522" d="M407 451Q477 381 477 246Q477 187 463 140T421 58T353 6T260 -13Q209 -13 169 5L133 -56Q95 -51 74 -23L112 44Q45 111 45 247Q45 306 59 354T101 436T169 488T260 507Q310 507 351 489L386
550Q424 544 445 517L407 451ZM359 363L208 76Q230 63 261 63Q293 63 315 77T352 116T372 174T378 243Q378 319 359 363ZM161 134L311 419Q287 431 261 431Q229 431 207 417T170 379T150 322T143 252Q143 177 161 134Z" />
<glyph unicode="&#xf9;" glyph-name="ugrave" horiz-adv-x="547" d="M74 155V388Q74 448 57 478Q82 500 122 500Q177 500 177 435V180Q177 128 190 106T236 84T303 100T364 145V494Q392 498 415 498T468 494V140Q468 70 496 45Q485 9 457 -7Q394 4 373 65Q295
-9 206 -9Q140 -9 107 36T74 155ZM207 739L351 580Q337 547 306 538L135 671Q143 693 163 712T207 739Z" />
<glyph unicode="&#xfa;" glyph-name="uacute" horiz-adv-x="547" d="M74 155V388Q74 448 57 478Q82 500 122 500Q177 500 177 435V180Q177 128 190 106T236 84T303 100T364 145V494Q392 498 415 498T468 494V140Q468 70 496 45Q485 9 457 -7Q394 4 373 65Q295
-9 206 -9Q140 -9 107 36T74 155ZM193 580L337 739Q360 731 381 712T410 671L239 538Q225 542 212 554T193 580Z" />
<glyph unicode="&#xfb;" glyph-name="ucircumflex" horiz-adv-x="547" d="M74 155V388Q74 448 57 478Q82 500 122 500Q177 500 177 435V180Q177 128 190 106T236 84T303 100T364 145V494Q392 498 415 498T468 494V140Q468 70 496 45Q485 9 457 -7Q394 4 373 65Q295
-9 206 -9Q140 -9 107 36T74 155ZM363 546L270 637L170 541Q139 553 122 584L228 717Q266 730 315 718L413 592Q398 559 363 546Z" />
<glyph unicode="&#xfc;" glyph-name="udieresis" horiz-adv-x="547" d="M74 155V388Q74 448 57 478Q82 500 122 500Q177 500 177 435V180Q177 128 190 106T236 84T303 100T364 145V494Q392 498 415 498T468 494V140Q468 70 496 45Q485 9 457 -7Q394 4 373 65Q295
-9 206 -9Q140 -9 107 36T74 155ZM313 573Q308 582 307 592T305 612Q305 644 317 654T361 664Q390 664 403 656T417 612Q417 579 406 570T362 561Q332 561 313 573ZM127 573Q122 581 121 591T119 612Q119 645 134 654T175 664Q206 664 218 654T231 612Q231 580
219 571T174 561Q143 561 127 573Z" />
<glyph unicode="&#xfd;" glyph-name="yacute" horiz-adv-x="468" d="M456 485L324 16Q306 -47 287 -91T242 -164T182 -205T101 -218Q93 -218 77 -217T45 -214T17 -208T5 -198Q5 -181 11 -160T28 -128Q61 -141 106 -141Q149 -141 176 -111T222 -17L225 -5Q193 -4
175 7T148 49L16 486Q52 501 79 501Q118 501 131 455L199 225Q204 209 213 173T236 78Q237 71 245 71L355 494Q363 496 373 497T397 498Q411 498 425 497T453 491L456 485ZM158 580L302 739Q325 731 346 712T375 671L204 538Q190 542 177 554T158 580Z" />
<glyph unicode="&#xfe;" glyph-name="thorn" horiz-adv-x="528" d="M294 -9Q236 -9 178 24V-149Q178 -185 166 -200T122 -215H84L78 -209V729L84 735H122Q154 735 166 720T178 669V446Q237 502 314 502Q394 502 439 434T484 246Q484 186 469 139T427 59T367 9T294
-9ZM288 416Q223 416 178 351V110Q234 74 276 74Q323 74 351 119T379 250Q379 335 353 375T288 416Z" />
<glyph unicode="&#xff;" glyph-name="ydieresis" horiz-adv-x="468" d="M456 485L324 16Q306 -47 287 -91T242 -164T182 -205T101 -218Q93 -218 77 -217T45 -214T17 -208T5 -198Q5 -181 11 -160T28 -128Q61 -141 106 -141Q149 -141 176 -111T222 -17L225 -5Q193
-4 175 7T148 49L16 486Q52 501 79 501Q118 501 131 455L199 225Q204 209 213 173T236 78Q237 71 245 71L355 494Q363 496 373 497T397 498Q411 498 425 497T453 491L456 485ZM278 573Q273 582 272 592T270 612Q270 644 282 654T326 664Q355 664 368 656T382 612Q382
579 371 570T327 561Q297 561 278 573ZM92 573Q87 581 86 591T84 612Q84 645 99 654T140 664Q171 664 183 654T196 612Q196 580 184 571T139 561Q108 561 92 573Z" />
<glyph unicode="&#x2013;" glyph-name="endash" horiz-adv-x="531" d="M466 223H65Q61 240 61 264T65 307H466Q470 288 470 264T466 223Z" />
<glyph unicode="&#x2014;" glyph-name="emdash" horiz-adv-x="799" d="M719 223H79Q75 240 75 264T79 307H719Q724 289 724 264T719 223Z" />
<glyph unicode="&#x2018;" glyph-name="quoteleft" horiz-adv-x="228" d="M54 518Q42 545 42 584Q42 645 75 692T175 764Q202 750 202 722V713Q135 682 132 628Q167 626 175 613T184 567Q184 544 180 532T166 513T144 506T112 505Q71 505 54 518Z" />
<glyph unicode="&#x2019;" glyph-name="quoteright" horiz-adv-x="228" d="M174 750Q185 723 185 673Q185 647 177 622T152 575T111 534T53 503Q40 509 33 522T26 554Q93 587 96 639Q75 642 64 646T50 657T45 674T44 699Q44 723 48 738T63 756T86 761T116 763Q155
763 174 750Z" />
<glyph unicode="&#x201a;" glyph-name="quotesinglbase" horiz-adv-x="229" d="M178 101Q189 77 189 25Q189 -1 181 -26T156 -74T115 -115T57 -145Q44 -139 37 -126T29 -94Q58 -81 78 -59T100 -9Q79 -6 69 -2T55 9T50 26T48 52Q48 74 52 88T66 106T89 112T119
115Q158 115 178 101Z" />
<glyph unicode="&#x201c;" glyph-name="quotedblleft" horiz-adv-x="422" d="M53 518Q41 545 41 584Q41 645 74 692T174 764Q201 750 201 722V713Q134 682 131 628Q166 626 174 613T183 567Q183 544 179 532T165 513T143 506T111 505Q70 505 53 518ZM247 518Q235
545 235 584Q235 645 268 692T368 764Q395 750 395 722V713Q328 682 325 628Q360 626 368 613T377 567Q377 544 373 532T359 513T337 506T305 505Q264 505 247 518Z" />
<glyph unicode="&#x201d;" glyph-name="quotedblright" horiz-adv-x="422" d="M176 750Q187 723 187 673Q187 647 179 622T154 575T113 534T55 503Q42 509 35 521T28 554Q95 587 98 639Q77 642 66 646T52 657T47 674T46 699Q46 723 50 737T65 755T88 761T118 763Q157
763 176 750ZM370 750Q381 723 381 673Q381 647 373 622T348 575T307 534T249 503Q236 509 229 521T222 554Q289 587 292 639Q271 642 260 646T246 657T241 674T240 699Q240 723 244 737T259 755T282 761T312 763Q351 763 370 750Z" />
<glyph unicode="&#x201e;" glyph-name="quotedblbase" horiz-adv-x="423" d="M178 101Q189 77 189 25Q189 -1 181 -26T156 -74T115 -115T57 -145Q44 -139 37 -126T29 -94Q58 -81 78 -59T100 -9Q79 -6 69 -2T55 9T50 26T48 52Q48 74 52 88T66 106T89 112T119 115Q158
115 178 101ZM372 101Q383 77 383 25Q383 -1 375 -26T350 -74T309 -115T251 -145Q238 -139 231 -126T223 -94Q252 -81 272 -59T294 -9Q273 -6 263 -2T249 9T244 26T242 52Q242 74 246 88T260 106T283 112T313 115Q352 115 372 101Z" />
<glyph unicode="&#x2022;" glyph-name="bullet" horiz-adv-x="447" d="M125 357Q164 381 226 381Q289 381 325 357Q340 328 340 272Q340 216 325 186Q293 163 228 163Q163 163 125 186Q110 216 110 272Q110 328 125 357Z" />
<glyph unicode="&#x2039;" glyph-name="guilsinglleft" horiz-adv-x="332" d="M290 418L151 257L295 91Q289 74 272 58T236 37L39 222Q33 236 33 255T39 288L232 472Q250 467 267 451T290 418Z" />
<glyph unicode="&#x203a;" glyph-name="guilsinglright" horiz-adv-x="332" d="M42 92L180 253L36 418Q42 434 60 450T95 472L293 287Q306 254 293 222L99 37Q82 42 65 58T42 92Z" />
</font>
</defs>
</svg>
