<?xml version="1.0" standalone="no"?>
<!DOCTYPE svg PUBLIC "-//W3C//DTD SVG 1.1//EN" "https://www.w3.org/Graphics/SVG/1.1/DTD/svg11.dtd">
<svg xmlns="https://www.w3.org/2000/svg">
<defs >
<font id="Signika" horiz-adv-x="516" ><font-face
    font-family="Signika SemiBold"
    units-per-em="1000"
    panose-1="2 1 0 3 2 6 0 0 0 4"
    ascent="940"
    descent="-292"
    alphabetic="0" />
<glyph unicode=" " glyph-name="space" horiz-adv-x="220" />
<glyph unicode="!" glyph-name="exclam" horiz-adv-x="298" d="M96 202L79 654Q128 691 218 691L226 681L196 202Q175 196 145 196Q131 196 118 197T96 202ZM80 110Q94 118 111 121T146 125Q164 125 181 122T212 110Q222 93 222 57Q222 33 218 17T203 -1T179 -7T146
-10Q128 -10 108 -6T83 2T75 18T71 57Q71 93 80 110Z" />
<glyph unicode="&quot;" glyph-name="quotedbl" horiz-adv-x="421" d="M250 765Q275 780 311 780T371 765Q378 735 378 719T372 672Q353 574 344 500Q333 493 311 493T278 500Q270 571 257 637T244 721T250 765ZM50 765Q75 780 111 780T171 765Q178 735 178 719T172
672Q153 574 144 500Q133 493 111 493T78 500Q70 571 57 637T44 721T50 765Z" />
<glyph unicode="#" glyph-name="numbersign" horiz-adv-x="683" d="M447 515L477 645Q499 654 536 654T593 645L563 515H659Q667 492 667 462T659 410H540L503 248H608Q627 195 608 143H480L451 13Q429 3 392 3T335 13L364 143H242L213 13Q192 3 155 3T97 13L126
143H28Q20 165 20 195T28 248H149L186 410H79Q60 462 79 515H209L239 645Q261 654 298 654T355 645L325 515H447ZM302 410L265 248H387L424 410H302Z" />
<glyph unicode="$" glyph-name="dollar" horiz-adv-x="505" d="M27 96Q27 109 31 124T43 152T59 177T77 194Q180 139 256 139Q291 139 313 153T335 192Q335 215 321 229T277 255L180 290Q51 339 51 444Q51 507 92 551T202 608V689Q217 693 250 693Q285 693 300
689V609Q379 601 457 566Q457 538 444 510T411 464Q321 504 255 504Q223 504 205 491T186 455Q186 434 199 424T243 402L337 367Q473 316 473 200Q473 134 425 90T296 35V-40Q282 -43 246 -43Q210 -43 198 -40V37Q94 50 27 96Z" />
<glyph unicode="%" glyph-name="percent" horiz-adv-x="950" d="M853 366Q904 315 904 198Q904 90 861 39T739 -13Q662 -13 618 37T574 198Q574 258 587 298T622 363T675 399T739 410Q809 410 853 366ZM702 308Q696 299 692 289T686 264T683 232T682 188Q682 164
684 143T693 105T710 80T739 70Q757 70 768 79T785 105T793 143T796 188Q796 219 794 244T786 288T768 317T737 327Q717 327 702 308ZM325 652Q376 602 376 484Q376 375 333 324T212 273Q177 273 147 283T94 319T59 384T46 484Q46 544 59 584T94 649T147 685T211
696Q281 696 325 652ZM174 594Q168 585 164 575T158 550T155 518T154 474Q154 450 156 429T165 391T182 366T211 356Q229 356 240 365T257 391T265 429T268 474Q268 505 266 530T258 574T240 603T209 613Q189 613 174 594ZM223 0L600 683Q627 689 668 689Q709 689
727 683L349 0Q323 -6 281 -6Q239 -6 223 0Z" />
<glyph unicode="&amp;" glyph-name="ampersand" horiz-adv-x="640" d="M518 304L519 156Q519 127 520 88T526 0Q512 -5 497 -6T465 -8Q449 -8 434 -7T405 -1L396 41Q329 -14 237 -14Q192 -14 156 1T96 41T58 100T45 171Q45 209 55 240T82 297T123 339T174 365Q129
381 102 421T74 516Q74 556 89 589T132 647T201 684T292 697Q393 697 486 665Q486 635 478 611T452 565Q410 579 376 585T315 592Q261 592 237 569T212 506Q212 416 323 416H512Q571 416 613 433Q630 413 630 372Q630 304 545 304H518ZM390 242Q390 262 390 277T391
304H312Q248 304 215 273T182 191Q182 140 206 115T273 89Q341 89 390 132V242Z" />
<glyph unicode="&apos;" glyph-name="quotesingle" horiz-adv-x="227" d="M48 765Q74 780 109 780T169 765Q176 735 176 719T170 672Q151 574 142 500Q131 493 109 493T76 500Q68 571 55 637T42 721T48 765Z" />
<glyph unicode="(" glyph-name="parenleft" horiz-adv-x="354" d="M336 -120Q314 -171 260 -189Q213 -143 176 -84T113 43T74 182T60 323Q60 392 73 464T113 603T176 731T260 836Q314 818 336 767Q267 673 233 557T198 323Q198 206 232 90T336 -120Z" />
<glyph unicode=")" glyph-name="parenright" horiz-adv-x="354" d="M18 767Q40 818 94 836Q141 791 178 731T241 603T280 464T294 323Q294 255 280 183T241 44T178 -84T94 -189Q40 -171 18 -120Q87 -26 121 90T156 323Q156 441 122 557T18 767Z" />
<glyph unicode="*" glyph-name="asterisk" horiz-adv-x="513" d="M40 534Q38 555 49 588T74 637L130 617Q167 603 226 561Q205 637 204 670L202 730Q221 738 256 738T310 730L308 670Q306 641 286 562Q340 600 382 615L439 636Q452 621 463 588T473 534L414 517Q381
507 305 505Q364 456 385 430L422 383Q412 366 384 345T335 319L302 369Q284 396 256 468Q233 404 210 370L177 320Q157 324 129 344T89 383L126 430Q147 458 207 505Q135 507 98 518L40 534Z" />
<glyph unicode="+" glyph-name="plus" horiz-adv-x="530" d="M209 349L208 409V512Q232 517 265 517T322 512V409L321 349L380 350H476Q481 318 481 294T476 243H380L321 244L322 186V82Q298 77 265 77T208 82V186L209 244L150 243H54Q49 263 49 296T54 350H150L209 349Z" />
<glyph unicode="," glyph-name="comma" horiz-adv-x="283" d="M211 116Q223 87 223 43Q223 8 212 -25T181 -86T130 -137T60 -171Q44 -163 35 -148T27 -109Q63 -95 87 -69T116 -8Q80 -3 72 12T63 62Q63 87 67 99T78 117T106 128T145 132Q189 132 211 116Z" />
<glyph unicode="-" glyph-name="hyphen" horiz-adv-x="364" d="M314 214H49Q43 236 43 268T49 322H314Q320 300 320 268T314 214Z" />
<glyph unicode="." glyph-name="period" horiz-adv-x="275" d="M67 6Q62 17 60 31T57 61Q57 77 59 91T67 117Q99 133 137 133Q176 133 208 117Q218 94 218 61Q218 29 208 6Q183 -10 138 -10Q93 -10 67 6Z" />
<glyph unicode="/" glyph-name="slash" horiz-adv-x="437" d="M4 -73L319 765Q385 758 431 722L116 -115Q51 -110 4 -73Z" />
<glyph unicode="0" glyph-name="zero" horiz-adv-x="530" d="M110 600Q170 662 265 662Q326 662 369 640T441 574T481 467T492 324Q492 243 481 181T442 75T370 9T265 -14Q203 -14 160 8T89 74T49 180T38 324Q38 374 41 414T52 488T75 549T110 600ZM201 124Q220
87 265 87Q289 87 306 97T335 134T351 207T357 324Q357 395 352 441T335 513T307 550T265 561Q241 561 224 551T195 514T179 441T173 324Q173 168 201 124Z" />
<glyph unicode="1" glyph-name="one" horiz-adv-x="530" d="M231 107L230 178V355Q230 384 236 474Q180 409 98 374Q53 397 43 451Q184 539 235 648Q263 653 296 653T358 648V178L357 107L421 108H482Q488 84 488 55T482 0H84Q78 26 78 55T84 108H171L231 107Z" />
<glyph unicode="2" glyph-name="two" horiz-adv-x="530" d="M482 112Q482 56 465 28T397 -1H93Q45 47 45 80Q45 157 165 264L268 356Q331 411 331 470Q331 508 309 531T249 555Q212 555 186 529T146 463Q119 464 92 475T52 504Q62 538 81 567T129 617T192 650T270
662Q312 662 347 648T409 609T450 547T465 467Q465 436 457 410T434 360T396 313T343 263L269 200Q195 137 179 103Q257 112 322 112H482Z" />
<glyph unicode="3" glyph-name="three" horiz-adv-x="530" d="M432 513L342 419Q326 403 309 391Q348 388 380 374T435 336T470 276T483 194Q483 148 465 110T415 44T341 1T249 -14Q121 -14 42 55Q53 106 98 141Q162 92 223 92Q287 92 318 123T349 208Q349 235
340 254T317 285T284 302T246 308Q213 308 188 294Q171 301 157 321T138 364L246 479Q291 524 314 542L310 548Q272 537 204 537H73Q65 561 65 589Q65 604 67 619T76 648H431Q458 598 458 569Q458 553 452 540T432 513Z" />
<glyph unicode="4" glyph-name="four" horiz-adv-x="530" d="M407 126L408 63V0Q379 -5 344 -5T281 0V63L282 126L218 124H58Q29 171 29 198T48 269L213 655Q241 661 279 653T333 629L243 418Q192 290 153 232L156 228Q214 234 280 234H281V314Q281 362 304 389T370
417H402L408 411V297L407 234L459 235H498Q502 214 502 185T493 126H407Z" />
<glyph unicode="5" glyph-name="five" horiz-adv-x="530" d="M208 538L200 421Q236 432 270 432Q318 432 357 417T423 375T464 309T479 222Q479 165 461 121T409 47T332 2T240 -14Q120 -14 46 53Q50 73 66 99T100 139Q135 114 167 103T228 91Q284 91 314 127T344
222Q344 275 313 303T236 331Q211 331 185 322T135 294Q118 298 99 311T70 339L86 641L94 648H445Q454 624 454 594Q454 538 398 538H208Z" />
<glyph unicode="6" glyph-name="six" horiz-adv-x="530" d="M108 56Q99 69 93 75L77 105Q57 149 49 204T41 323Q41 402 59 465T111 571T194 638T306 662Q398 662 461 629Q457 568 417 538Q367 559 316 559Q186 559 177 386Q237 434 316 434Q395 434 443 380T492
218Q492 165 476 122T429 49T358 3T266 -14Q166 -14 108 56ZM177 272Q177 84 273 84Q318 84 339 117T361 208Q361 328 276 328Q224 328 177 285V272Z" />
<glyph unicode="7" glyph-name="seven" horiz-adv-x="530" d="M64 648H467Q491 596 491 570T472 517L436 465Q366 365 328 265T278 41L275 0Q254 -5 210 -5T141 0L145 45Q166 276 296 456L308 472Q338 515 368 543L364 548Q321 537 219 537H58Q52 556 52 588T64 648Z" />
<glyph unicode="8" glyph-name="eight" horiz-adv-x="530" d="M35 164Q35 218 66 262T147 334Q51 392 51 488Q51 525 67 557T113 612T181 648T266 662Q312 662 351 650T418 615T461 561T477 491Q477 402 382 349Q495 286 495 171Q495 128 477 94T426 35T351 -1T258
-14Q207 -14 166 -2T96 33T51 89T35 164ZM236 294H235Q167 246 167 173Q167 130 194 104T264 78Q307 78 334 104T361 172Q361 250 258 286L236 294ZM180 489Q180 424 279 393L292 388Q350 425 350 486Q350 523 326 545T265 568Q228 568 204 546T180 489Z" />
<glyph unicode="9" glyph-name="nine" horiz-adv-x="530" d="M422 592Q448 556 457 534T473 479T485 405T489 325Q489 248 472 185T420 78T337 10T224 -14Q132 -14 69 19Q73 80 113 110Q162 89 214 89Q281 89 315 135T352 262Q293 214 214 214Q135 214 87 267T38
429Q38 483 54 526T101 599T172 646T264 662Q364 662 422 592ZM254 320Q306 320 353 362V376Q353 477 327 520T253 564Q213 564 191 531T169 440Q169 320 254 320Z" />
<glyph unicode=":" glyph-name="colon" horiz-adv-x="282" d="M70 6Q65 17 63 31T60 61Q60 77 62 91T70 117Q102 133 140 133Q179 133 211 117Q221 94 221 61Q221 29 211 6Q186 -10 141 -10Q96 -10 70 6ZM70 325Q65 336 63 350T60 380Q60 396 62 410T70 436Q102
452 140 452Q179 452 211 436Q221 413 221 380Q221 348 211 325Q186 309 141 309Q96 309 70 325Z" />
<glyph unicode=";" glyph-name="semicolon" horiz-adv-x="286" d="M210 116Q222 87 222 43Q222 8 211 -25T180 -86T129 -137T59 -171Q43 -163 34 -148T26 -109Q62 -95 86 -69T115 -8Q79 -3 71 12T62 62Q62 87 66 102T81 121T109 129T144 132Q188 132 210 116ZM72
325Q67 336 65 350T62 380Q62 396 64 410T72 436Q104 452 142 452Q181 452 213 436Q223 413 223 380Q223 348 213 325Q188 309 143 309Q98 309 72 325Z" />
<glyph unicode="&lt;" glyph-name="less" horiz-adv-x="530" d="M52 346L414 545Q438 531 455 503T474 444L265 335Q235 318 185 300V292Q231 275 265 258L474 149Q471 118 454 89T414 46L52 245Q39 302 52 346Z" />
<glyph unicode="=" glyph-name="equal" horiz-adv-x="530" d="M476 138H54Q49 160 49 192T54 246H476Q481 223 481 192T476 138ZM476 349H54Q49 371 49 402T54 457H476Q481 434 481 403T476 349Z" />
<glyph unicode="&gt;" glyph-name="greater" horiz-adv-x="530" d="M478 246L115 47Q91 62 74 90T56 149L265 258Q307 279 345 293V300Q307 314 265 335L56 444Q58 475 75 504T116 547L478 347Q491 292 478 246Z" />
<glyph unicode="?" glyph-name="question" horiz-adv-x="409" d="M6 643Q102 697 199 697Q298 697 349 650T401 521Q401 393 271 324L209 291L200 203Q189 199 177 198T151 196Q137 196 125 197T101 203L94 352L104 365L156 390Q263 441 263 507Q263 539 242 561T178
584Q154 584 123 576T53 548Q44 555 36 566T21 590T10 617T6 643ZM86 108Q110 123 151 123Q169 123 185 120T211 112T223 93T227 55Q227 30 223 16T209 -2T184 -9T151 -12Q133 -12 114 -8T89 -1T80 17T76 55Q76 91 86 108Z" />
<glyph unicode="@" glyph-name="at" horiz-adv-x="965" d="M680 412L679 161Q679 101 715 101Q752 101 776 147T800 297Q800 363 779 416T718 506T621 564T494 585Q424 585 366 558T265 483T199 369T175 224Q175 146 195 86T252 -14T342 -75T463 -96Q567 -96 663
-58Q696 -94 696 -148Q580 -196 454 -196Q362 -196 287 -169T157 -90T74 40T44 220Q44 322 78 406T173 552T316 648T494 682Q590 682 670 655T807 578T896 455T928 293Q928 224 911 170T864 80T797 24T715 5Q629 5 585 64Q520 1 445 1Q369 1 328 62T286 232Q286
286 300 332T341 412T407 465T496 484Q550 484 599 463T680 412ZM476 100Q516 100 557 145V368Q531 391 496 391Q411 391 411 232Q411 100 476 100Z" />
<glyph unicode="A" glyph-name="A" horiz-adv-x="625" d="M426 155L377 154H237L188 155L141 -1Q120 -6 82 -6T19 3L14 10L237 683Q274 688 317 688T392 682L611 9Q582 -8 542 -8T484 7T454 64L426 155ZM221 261L266 262H352L394 261L364 363Q330 477 310 557H304Q295
514 260 388L221 261Z" />
<glyph unicode="B" glyph-name="B" horiz-adv-x="610" d="M90 684Q168 686 222 687T309 688Q418 688 477 642T536 507Q536 461 511 423T444 368Q469 360 492 344T532 304T558 252T568 194Q568 98 505 47T324 -5Q287 -5 229 -4T90 -1L83 5V678L90 684ZM314 309H216V91Q235
92 259 92T307 92T353 96T393 113T421 147T432 201Q432 222 425 241T404 276T368 300T314 309ZM216 591V408H303Q403 408 403 500Q403 538 389 557T348 583T288 590T216 591Z" />
<glyph unicode="C" glyph-name="C" horiz-adv-x="606" d="M446 428V438Q446 471 439 498T417 546T379 578T322 590Q249 590 216 525T183 326Q183 220 223 162T334 103Q371 103 414 120T508 176Q529 162 548 137T572 89Q550 67 521 49T457 16T386 -6T312 -14Q238
-14 187 14T104 91T57 204T42 339Q42 429 64 496T123 608T211 675T319 698Q378 698 425 682T506 639T557 575T575 496Q575 421 499 421Q488 421 475 422T446 428Z" />
<glyph unicode="D" glyph-name="D" horiz-adv-x="658" d="M505 45Q475 19 424 7T318 -5Q291 -5 235 -4T90 -1L83 5V678L90 684Q148 686 206 687T326 688Q410 688 465 661T554 587T600 476T614 341Q614 241 592 169T505 45ZM450 502Q420 582 326 582Q291 582 264
582T217 583V100Q236 101 260 101T310 102T356 106T392 116Q418 130 434 153T460 207T472 273T476 347Q476 390 471 427T450 502Z" />
<glyph unicode="E" glyph-name="E" horiz-adv-x="570" d="M215 171L214 109L284 111H529Q529 79 526 62Q515 -2 440 -2H159Q123 -2 103 19T82 78V676L89 683H506Q511 658 511 630T500 570H214L215 501V398L280 399H449Q457 376 457 344T449 289H215V171Z" />
<glyph unicode="F" glyph-name="F" horiz-adv-x="529" d="M217 0Q190 -5 151 -5T83 0V677L90 683H502Q508 660 508 629T491 584T435 569H216L217 472V397H445Q452 375 452 343T445 286H217V0Z" />
<glyph unicode="G" glyph-name="G" horiz-adv-x="649" d="M345 374L500 375Q592 375 592 290V28Q473 -14 331 -14Q259 -14 205 11T114 82T60 193T42 337Q42 429 68 497T137 609T236 675T355 697Q483 697 590 625Q587 596 569 569T528 527Q448 584 360 584Q180
584 180 339Q180 94 359 94Q414 94 465 106V195Q465 217 465 233T467 261H399Q364 261 350 275T335 320Q335 346 345 374Z" />
<glyph unicode="H" glyph-name="H" horiz-adv-x="681" d="M464 408L463 482V683Q489 688 529 688T598 683V0Q569 -5 530 -5T463 0V223L464 297L411 296H270L216 297L217 223V0Q191 -5 150 -5T83 0V683Q109 688 150 688T217 683V482L216 408L270 409H411L464 408Z" />
<glyph unicode="I" glyph-name="I" horiz-adv-x="306" d="M86 0V683Q111 688 151 688T220 683V0Q192 -5 152 -5T86 0Z" />
<glyph unicode="J" glyph-name="J" horiz-adv-x="460" d="M58 133Q111 101 161 101Q212 101 233 134T254 241V683Q282 688 321 688Q360 688 388 683V256Q388 196 379 147T344 63T277 9T169 -10Q80 -10 10 33Q20 89 58 133Z" />
<glyph unicode="K" glyph-name="K" horiz-adv-x="609" d="M598 34Q570 -8 508 -8Q473 -8 456 10T424 71L378 202Q360 254 337 275T273 297Q263 297 217 295V0Q191 -5 150 -5T83 0V683Q109 688 150 688T217 683V408L257 409Q273 409 281 415T299 440L410 638Q425
665 440 676T482 688T563 684L571 674L435 431Q412 390 386 369Q433 359 458 331T502 251L549 117Q556 99 557 96T564 80Q578 52 586 45T598 34Z" />
<glyph unicode="L" glyph-name="L" horiz-adv-x="517" d="M308 114H494Q494 84 490 63Q479 -2 403 -2H160Q124 -2 103 19T82 78V682L89 689H139Q179 689 198 669T217 603V110Q260 114 308 114Z" />
<glyph unicode="M" glyph-name="M" horiz-adv-x="821" d="M64 2L117 682Q158 689 205 689T292 682L369 405Q400 281 407 234H414Q421 281 452 405L528 682Q570 689 616 689T704 682L757 2Q730 -5 693 -5T630 -1L611 320Q603 444 603 537H596L479 102Q446 97 411
97T342 102L225 537H218Q216 414 210 320L191 -1Q166 -5 129 -5T64 2Z" />
<glyph unicode="N" glyph-name="N" horiz-adv-x="688" d="M598 689L605 682V2Q574 -5 527 -5T445 0L261 387Q221 475 201 527L197 526Q208 385 208 254V0Q180 -5 145 -5T83 0V681Q112 688 159 688T241 683L423 296L488 148L491 149Q481 294 481 423V606Q481 651
498 670T555 689H598Z" />
<glyph unicode="O" glyph-name="O" horiz-adv-x="662" d="M479 341Q479 592 331 592Q183 592 183 341Q183 91 331 91Q479 91 479 341ZM149 47Q42 139 42 341Q42 426 61 492T118 603T209 673T332 697Q400 697 453 673T544 604T600 492T620 341Q620 257 601 191T544
80T454 10T332 -14Q223 -14 149 47Z" />
<glyph unicode="P" glyph-name="P" horiz-adv-x="579" d="M309 227H217V0Q189 -5 150 -5Q111 -5 83 0V678L90 684Q171 686 225 687T309 688Q417 688 481 629T546 458Q546 402 529 359T481 287T407 243T309 227ZM217 584V329Q256 330 283 330T330 333T363 346T388
375Q398 392 403 413T408 457Q408 480 403 502T386 543T354 572T304 583Q275 583 254 583T217 584Z" />
<glyph unicode="Q" glyph-name="Q" horiz-adv-x="662" d="M444 -103L334 -14Q261 -14 207 10T117 80T61 192T42 342Q42 426 61 491T116 603T206 673T329 697Q399 697 453 673T544 604T599 492T618 341Q618 221 580 139T473 28L497 11Q569 -41 623 -40Q623 -85
597 -111T530 -137Q510 -137 488 -129T444 -103ZM330 592Q181 592 181 342Q181 92 330 92Q479 92 479 342Q479 592 330 592Z" />
<glyph unicode="R" glyph-name="R" horiz-adv-x="608" d="M553 477Q553 444 544 415T517 362T478 321T428 294Q454 285 471 263T502 206L539 105Q548 80 559 62T586 32Q573 14 549 3T493 -8Q463 -8 445 10T412 71L370 190Q357 225 337 243T277 262H216V0Q202 -2
185 -3T148 -5Q111 -5 83 0V678L90 684Q171 686 227 687T318 688Q426 688 489 634T553 477ZM216 586V366Q268 369 308 369Q415 369 415 477Q415 585 308 585Q277 585 255 585T216 586Z" />
<glyph unicode="S" glyph-name="S" horiz-adv-x="556" d="M22 60Q25 88 40 116T76 162Q179 96 278 96Q326 96 354 118T382 175Q380 233 305 266L187 316Q117 345 82 390T47 495Q47 540 64 577T114 640T191 682T290 697Q400 697 506 642Q503 581 459 540Q358 588
283 588Q235 588 210 566T184 512Q184 466 255 436L373 386Q445 356 484 307T523 194Q523 149 507 111T459 45T378 2T263 -14Q135 -14 22 60Z" />
<glyph unicode="T" glyph-name="T" horiz-adv-x="501" d="M318 572L319 498V0Q290 -5 252 -5T184 0V498L185 572L124 571H13Q8 596 8 627T13 683H491Q498 658 498 629T481 585T426 571H379L318 572V572Z" />
<glyph unicode="U" glyph-name="U" horiz-adv-x="671" d="M597 683V246Q597 121 529 54T335 -14Q211 -14 143 53T74 246V682L80 689H130Q170 689 189 669T208 603V245Q208 93 335 93Q463 93 463 245V683Q491 688 530 688Q569 688 597 683Z" />
<glyph unicode="V" glyph-name="V" horiz-adv-x="591" d="M308 115L453 683Q472 688 509 688T573 679L579 671L386 0Q346 -5 295 -5T221 7T189 57L14 671Q59 691 92 691T142 676T168 625L258 303Q279 226 299 126Q301 115 308 115Z" />
<glyph unicode="W" glyph-name="W" horiz-adv-x="878" d="M144 57L22 675Q57 691 93 691T145 676T168 618L220 320Q242 194 246 155T251 114T259 112L354 669Q392 676 442 676T527 669L614 124Q616 112 624 112Q634 197 657 322L723 683Q748 688 784 688T847 679L854
671L716 1Q670 -5 617 -5T544 7T518 57L477 298Q454 437 443 537H435Q422 439 397 298L344 1Q296 -5 245 -5T173 7T144 57Z" />
<glyph unicode="X" glyph-name="X" horiz-adv-x="602" d="M439 683Q461 688 497 688T565 677L568 669L378 359L589 21Q546 -9 498 -9T415 45L291 244L145 0Q122 -5 86 -5T17 6L13 14L223 355L33 662Q76 692 123 692T205 639L310 469L439 683Z" />
<glyph unicode="Y" glyph-name="Y" horiz-adv-x="523" d="M316 485L395 683Q418 688 453 688T516 679L521 671L329 213V0Q303 -5 262 -5T195 0V217L3 667Q45 691 79 691T129 678T157 635L220 481Q246 413 263 347H269Q285 405 316 485Z" />
<glyph unicode="Z" glyph-name="Z" horiz-adv-x="571" d="M59 135L296 476Q332 527 376 577L373 580Q309 572 218 572H66Q61 592 61 620T70 683H498Q517 618 517 596T501 550L265 210Q226 156 186 110L189 107Q275 113 325 113H404Q474 113 519 134Q529 106 529
72T505 19T439 0H58Q42 67 42 88T59 135Z" />
<glyph unicode="[" glyph-name="bracketleft" horiz-adv-x="370" d="M334 -149L107 -157L99 -150V815L107 822L334 814Q338 801 338 773T328 723L227 720V-55L328 -58Q338 -80 338 -108T334 -149Z" />
<glyph unicode="\" glyph-name="backslash" horiz-adv-x="437" d="M321 -115L6 722Q52 758 118 765L433 -73Q388 -108 321 -115Z" />
<glyph unicode="]" glyph-name="bracketright" horiz-adv-x="370" d="M263 -157L37 -149Q32 -136 32 -111T42 -58L143 -55V720L42 723Q32 750 32 776T37 814L263 822L271 815V-150L263 -157Z" />
<glyph unicode="^" glyph-name="asciicircum" horiz-adv-x="530" d="M335 648L494 306Q471 300 432 300T368 306L304 452Q303 453 269 548H261Q227 455 226 452L162 306Q137 299 98 299T36 306L195 648Q218 654 265 654T335 648Z" />
<glyph unicode="_" glyph-name="underscore" horiz-adv-x="548" d="M549 -166H-1Q-6 -146 -6 -117T-1 -67H549Q554 -88 554 -117T549 -166Z" />
<glyph unicode="`" glyph-name="grave" horiz-adv-x="398" d="M142 755L291 591Q284 573 269 559T236 539L58 675Q66 700 91 723T142 755Z" />
<glyph unicode="a" glyph-name="a" horiz-adv-x="510" d="M473 60Q468 42 455 22T429 -8Q364 0 334 49Q269 -14 192 -14Q153 -14 124 -2T75 32T46 80T36 136Q36 178 50 209T91 262T153 294T231 305Q285 305 315 302V329Q315 405 241 405Q191 405 89 370Q61 401
55 463Q161 508 274 508Q349 508 397 466T445 339V134Q445 81 473 60ZM221 85Q271 85 315 129V216Q299 217 284 218T255 219Q211 219 188 203T165 148Q165 118 180 102T221 85Z" />
<glyph unicode="b" glyph-name="b" horiz-adv-x="531" d="M69 25V729L75 736H124Q163 736 179 718T196 655V464Q251 506 320 506Q406 506 450 436T495 244Q495 187 478 141T429 61T355 10T259 -8Q154 -8 69 25ZM284 399Q258 399 237 389T196 355V95Q230 87 259
87Q308 87 334 129T361 253Q361 399 284 399Z" />
<glyph unicode="c" glyph-name="c" horiz-adv-x="473" d="M324 290Q324 350 310 381T251 412Q171 412 171 246Q171 164 194 127T268 90Q294 90 324 101T386 136Q402 126 417 104T437 61Q403 27 354 7T250 -14Q145 -14 91 57T37 254Q37 318 54 366T102 446T170
494T251 510Q295 510 330 498T390 464T428 413T442 352Q442 320 426 303T376 285Q346 285 324 290Z" />
<glyph unicode="d" glyph-name="d" horiz-adv-x="534" d="M234 506Q282 506 336 479V729L343 736H393Q432 736 448 718T464 655V143Q464 82 492 60Q488 42 476 22T449 -8Q384 -2 355 51Q296 -14 212 -14Q169 -14 137 4T82 56T49 138T38 246Q38 307 53 355T95 436T157
488T234 506ZM246 93Q298 93 336 143V377Q314 391 294 398T257 406Q218 406 195 365T171 244Q171 166 192 130T246 93Z" />
<glyph unicode="e" glyph-name="e" horiz-adv-x="498" d="M446 206H170Q173 151 195 120T274 88Q332 88 407 122Q436 92 444 43Q364 -14 252 -14Q146 -14 92 51T37 246Q37 306 51 354T92 437T158 491T247 510Q298 510 337 495T403 451T443 383T457 298Q457 273
454 251T446 206ZM253 416Q175 416 169 298H335V310Q335 358 315 387T253 416Z" />
<glyph unicode="f" glyph-name="f" horiz-adv-x="346" d="M94 0V404L8 403Q5 415 4 427T3 450Q3 461 4 472T8 497L88 496Q82 548 82 574Q82 610 94 640T128 693T179 727T244 740Q315 740 388 714Q388 659 359 627Q303 641 277 641Q207 641 207 565Q207 531 213
495L349 497Q351 484 352 473T354 450Q354 439 353 427T349 403L222 405V0Q205 -3 190 -4T158 -5Q142 -5 127 -4T94 0Z" />
<glyph unicode="g" glyph-name="g" horiz-adv-x="532" d="M367 461Q395 498 450 504Q464 494 477 474T493 437Q465 413 465 354V75Q465 -12 451 -69T409 -160T339 -207T239 -221Q139 -221 58 -187Q58 -163 67 -135T91 -91Q154 -122 226 -122Q338 -122 338 -3V36Q281
-9 215 -9Q127 -9 83 60T38 250Q38 311 53 359T95 440T157 492T232 510Q314 510 367 461ZM338 143V370Q295 410 255 410Q215 410 193 368T171 248Q171 170 191 134T245 97Q298 97 338 143Z" />
<glyph unicode="h" glyph-name="h" horiz-adv-x="543" d="M478 334V116Q478 52 499 21Q467 -7 422 -7Q379 -7 363 12T347 74V307Q347 352 336 370T295 388Q242 388 196 340V0Q181 -3 166 -4T133 -5Q117 -5 101 -4T69 0V729L75 736H126Q165 736 180 718T196 655V444Q266
505 337 505Q409 505 443 459T478 334Z" />
<glyph unicode="i" glyph-name="i" horiz-adv-x="285" d="M218 395V0Q203 -3 187 -4T153 -5Q136 -5 120 -4T87 0V348Q87 403 42 403H29Q23 425 23 449Q23 471 29 495Q52 497 71 498T105 500H122Q167 500 192 472T218 395ZM67 689Q90 702 133 702Q158 702 173 698T196
689T205 668T207 637Q204 586 195 581T132 571Q76 573 67 586T57 637Q57 666 67 689Z" />
<glyph unicode="j" glyph-name="j" horiz-adv-x="292" d="M224 395V24Q224 -31 218 -71T193 -141T141 -189T55 -220Q22 -192 19 -140Q41 -130 55 -120T79 -95T92 -62T96 -17V348Q96 403 50 403H28Q22 425 22 449Q22 471 28 495Q54 497 75 498T113 500H131Q174
500 199 472T224 395ZM72 689Q95 702 138 702Q163 702 178 698T200 688T209 668T212 637Q207 584 195 579T137 571Q83 573 73 585T62 637Q62 666 72 689Z" />
<glyph unicode="k" glyph-name="k" horiz-adv-x="513" d="M424 193L453 115Q475 52 501 33Q466 -7 413 -7Q383 -7 368 7T340 57L306 149Q293 183 278 195T241 207T196 205V0Q166 -5 133 -5T69 0V729L75 736H126Q165 736 180 718T196 655V314L221 315Q238 315 247
331L316 450Q343 500 394 500Q418 500 466 498L472 490L379 330Q363 299 337 281Q398 261 424 193Z" />
<glyph unicode="l" glyph-name="l" horiz-adv-x="304" d="M237 96H268Q279 68 279 42T276 4Q215 -5 179 -5Q121 -5 94 24T67 117V729L74 736H124Q163 736 179 718T195 655V142Q195 96 237 96Z" />
<glyph unicode="m" glyph-name="m" horiz-adv-x="803" d="M338 307Q338 388 286 388Q243 386 199 341V0Q169 -5 134 -5T69 0V495L75 502H124Q183 502 196 440Q266 505 335 505Q417 505 451 433Q528 505 607 505Q671 505 704 462T738 348V116Q738 52 759 21Q724
-7 682 -7T623 13T607 74V308Q607 388 554 388Q514 388 468 340V0Q438 -5 403 -5T338 0V307Z" />
<glyph unicode="n" glyph-name="n" horiz-adv-x="546" d="M481 334V116Q481 52 502 21Q470 -7 425 -7Q382 -7 366 12T350 74V307Q350 352 339 370T298 388Q245 388 199 340V0Q184 -3 168 -4T134 -5Q117 -5 101 -4T69 0V495L75 502H125Q181 502 195 442Q268 505
340 505Q412 505 446 459T481 334Z" />
<glyph unicode="o" glyph-name="o" horiz-adv-x="521" d="M413 454Q484 383 484 248Q484 188 469 140T426 57T355 5T260 -14Q207 -14 166 4T96 57T52 139T37 248Q37 369 95 439T260 510Q354 510 413 454ZM260 412Q171 412 171 248Q171 85 260 85Q350 85 350 248Q350
412 260 412Z" />
<glyph unicode="p" glyph-name="p" horiz-adv-x="534" d="M300 -9Q248 -9 197 18V-135Q197 -180 181 -198T126 -216H75L69 -209V495L75 502H112Q165 502 186 453Q243 510 324 510Q406 510 451 441T496 250Q496 190 481 142T439 61T377 9T300 -9ZM288 404Q234 404
197 352V120Q241 91 277 91Q319 91 341 133T363 253Q363 331 342 367T288 404Z" />
<glyph unicode="q" glyph-name="q" horiz-adv-x="534" d="M337 -135V35Q281 -9 215 -9Q127 -9 83 60T38 250Q38 311 53 359T95 440T157 492T232 510Q311 510 367 462Q396 498 449 504Q462 494 475 474T493 437Q465 415 465 354V-209L458 -216H408Q369 -216 353
-198T337 -135ZM245 97Q296 97 337 142V371Q295 410 256 410Q216 410 194 369T171 249Q171 171 192 134T245 97Z" />
<glyph unicode="r" glyph-name="r" horiz-adv-x="383" d="M40 436Q44 454 56 474T82 504Q163 494 193 414Q231 503 320 503Q353 503 380 496Q380 426 348 374Q333 379 302 381Q244 381 208 319V0Q178 -5 144 -5T77 0V333Q77 404 40 436Z" />
<glyph unicode="s" glyph-name="s" horiz-adv-x="440" d="M25 35Q26 57 37 83T64 125Q143 82 203 82Q236 82 256 95T277 130Q277 165 223 186L167 207Q41 253 41 354Q41 390 54 418T92 467T151 499T227 510Q246 510 269 507T317 499T363 486T401 471Q401 446 391
419T364 379Q285 414 227 414Q201 414 186 402T171 369Q171 338 221 320L282 298Q348 275 380 235T412 142Q412 71 359 29T207 -14Q110 -14 25 35Z" />
<glyph unicode="t" glyph-name="t" horiz-adv-x="363" d="M337 497Q343 473 343 450T337 403L216 405V142Q216 96 259 96H321Q331 66 331 39T328 4Q267 -5 208 -5Q88 -5 88 117V404L12 403Q7 423 7 450T12 497L88 496V568Q88 612 104 630T159 648H209L216 642V495L337
497Z" />
<glyph unicode="u" glyph-name="u" horiz-adv-x="548" d="M65 162V381Q65 443 44 476Q77 504 120 504T180 484T196 422V189Q196 146 207 128T248 109Q301 109 347 155V496Q369 501 411 501T478 496V141Q478 82 506 58Q501 40 489 21T462 -8Q389 -1 361 63Q284
-9 202 -9Q135 -9 100 38T65 162Z" />
<glyph unicode="v" glyph-name="v" horiz-adv-x="468" d="M243 102L345 496Q365 501 398 501T460 491L464 485Q366 144 318 0Q274 -6 228 -6T161 7T129 61L0 486Q40 505 74 505Q133 505 147 446L203 243Q214 207 233 110Q235 102 243 102Z" />
<glyph unicode="w" glyph-name="w" horiz-adv-x="740" d="M113 60L13 489Q52 505 83 505T129 492T149 450L187 266Q207 168 216 105Q218 97 224 97L293 493Q324 499 371 499T447 493L516 105Q517 97 524 97Q542 201 555 266L605 496Q626 502 664 502T725 491L729
483L609 0Q576 -5 524 -5T452 7T427 58L405 181Q385 296 373 379H367Q360 327 334 182L300 0Q265 -5 213 -5T142 8T113 60Z" />
<glyph unicode="x" glyph-name="x" horiz-adv-x="471" d="M327 496Q348 502 379 502T444 493L447 483L306 264L466 21Q422 -8 378 -8T308 31L226 156L133 0Q114 -6 76 -6T12 5L8 13L163 254L20 476Q62 506 109 506Q133 506 147 497T175 465L244 360L327 496Z" />
<glyph unicode="y" glyph-name="y" horiz-adv-x="483" d="M475 484L347 14Q314 -105 264 -162T112 -219Q56 -219 3 -200Q1 -178 9 -150T30 -107Q74 -121 113 -121Q190 -121 221 -19L225 -6Q187 -5 165 8T134 52L10 486Q51 505 83 505T130 493T155 448L212 237Q218
214 241 98Q242 91 250 91L348 496Q371 502 406 502T470 492L475 484Z" />
<glyph unicode="z" glyph-name="z" horiz-adv-x="448" d="M49 116L189 305Q204 325 269 401L266 405Q208 398 137 398H47Q42 420 42 443T50 496H392Q409 445 409 423T395 382L254 191Q210 134 177 98L180 93Q219 98 266 98H307Q374 98 407 114Q420 82 420 59Q420
0 345 0H46Q30 44 30 67T49 116Z" />
<glyph unicode="{" glyph-name="braceleft" horiz-adv-x="373" d="M44 369Q80 377 103 409T127 482V647Q127 719 168 763T279 818L338 827Q351 813 359 786T362 741L307 723Q259 708 259 646V484Q259 434 236 391T173 331V323Q212 305 235 262T259 169V7Q259 -55
307 -70L362 -88Q367 -105 359 -132T338 -175L279 -165Q210 -154 169 -111T127 6V171Q127 212 104 244T44 284Q37 300 37 326T44 369Z" />
<glyph unicode="|" glyph-name="bar" horiz-adv-x="263" d="M70 -141V774Q94 779 131 779T192 774V-141Q169 -147 131 -147T70 -141Z" />
<glyph unicode="}" glyph-name="braceright" horiz-adv-x="373" d="M330 369Q336 353 336 327T330 284Q294 276 271 244T247 171V6Q247 -67 205 -110T94 -165L35 -175Q22 -160 15 -133T11 -88L66 -70Q115 -54 115 7V169Q115 219 138 262T201 323V331Q162 348 139
391T115 484V646Q115 707 66 723L11 741Q7 758 14 785T35 827L94 818Q163 807 205 763T247 647V482Q247 440 270 409T330 369Z" />
<glyph unicode="~" glyph-name="asciitilde" horiz-adv-x="610" d="M289 371L370 334Q397 322 418 322Q434 321 447 329T475 352L497 376Q519 374 542 361T575 326L558 297Q502 202 408 202Q388 203 366 207T321 222L240 259Q215 270 192 270Q163 271 135 241L113
217Q91 219 68 232T35 267L52 296Q108 391 202 391Q241 391 289 371Z" />
<glyph unicode="&#xa1;" glyph-name="exclamdown" horiz-adv-x="298" d="M202 294L219 -159Q169 -195 80 -195L72 -186L102 294Q112 297 125 298T153 300Q182 300 202 294ZM218 386Q194 371 152 371Q135 371 121 373T96 380T81 399T77 438Q77 463 81 477T96 497T120
504T152 506Q170 506 184 504T210 496T224 476T228 438Q228 402 218 386Z" />
<glyph unicode="&#xa2;" glyph-name="cent" horiz-adv-x="465" d="M195 -32V67Q152 76 121 98T71 155T42 234T33 331Q33 437 79 501T198 582V681Q215 686 246 686Q277 686 295 681V584Q327 578 353 564T397 529T425 485T435 435Q435 362 365 362Q344 363 336 364T317
371Q317 489 243 489Q168 489 168 328Q168 168 267 168Q319 168 380 214Q396 203 411 182T431 142Q382 84 292 66V-32Q278 -35 243 -35Q207 -35 195 -32Z" />
<glyph unicode="&#xa3;" glyph-name="sterling" horiz-adv-x="534" d="M231 355L407 356Q414 337 414 309T407 261Q299 261 245 262Q241 177 187 105L190 102Q280 108 350 108H502Q502 80 500 64Q488 -1 412 -1H66Q51 67 51 88T67 131L82 153Q123 213 127 261H52Q45
280 45 308T52 356Q61 356 79 356T108 355Q86 406 82 416Q71 449 71 480Q71 551 126 606T281 662Q344 662 398 639T487 584Q483 559 464 535T419 503Q354 554 290 554Q250 554 225 532T200 470Q200 436 231 355Z" />
<glyph unicode="&#xa4;" glyph-name="currency" horiz-adv-x="583" d="M97 215Q65 265 65 333Q65 402 97 452L27 529Q48 568 95 597L174 525Q200 539 229 545T290 552Q353 552 406 525L488 599Q530 573 556 531L485 451Q516 401 516 333Q516 267 483 215L554 137Q530
96 486 69L405 142Q355 116 290 116Q226 116 176 142L95 70Q53 94 27 138L97 215ZM291 455Q243 455 219 422T195 334Q195 282 219 248T291 213Q339 213 363 246T387 334Q387 388 363 421T291 455Z" />
<glyph unicode="&#xa5;" glyph-name="yen" horiz-adv-x="533" d="M477 160H329V0Q302 -5 264 -5T200 0V160H53Q47 179 47 200T53 244H194L162 316H53Q47 335 47 356T53 400H125L20 635Q66 658 97 658T141 648T165 612L224 469Q240 429 267 343H272Q295 420 319
471L395 649Q417 655 449 655T511 647L516 640L406 400H477Q483 373 483 357T477 316H367L334 244H477Q483 217 483 201T477 160Z" />
<glyph unicode="&#xa6;" glyph-name="brokenbar" horiz-adv-x="257" d="M68 -141V246Q92 251 128 251T189 246V-141Q165 -147 128 -147T68 -141ZM68 387V774Q92 779 128 779T189 774V387Q165 381 128 381T68 387Z" />
<glyph unicode="&#xa7;" glyph-name="section" horiz-adv-x="493" d="M465 308Q465 221 363 160Q431 113 431 44Q431 9 417 -20T377 -69T313 -101T229 -113Q134 -113 64 -71Q64 -42 75 -17T102 19Q180 -16 236 -16Q265 -16 283 -4T301 30Q301 47 288 59T250 83L192
107Q114 139 72 177T29 277Q29 363 130 425Q64 471 64 540Q64 574 78 603T117 653T177 685T254 697Q337 697 414 661Q414 631 403 607T377 570Q306 600 268 600Q194 600 194 554Q194 521 245 502L302 479Q380 447 422 409T465 308ZM240 374L217 383Q155 351 155
300Q155 270 179 251T255 211L278 202Q339 233 339 285Q339 314 314 334T240 374Z" />
<glyph unicode="&#xa8;" glyph-name="dieresis" horiz-adv-x="398" d="M239 663Q262 677 296 677Q328 677 353 663Q361 641 361 617Q361 598 358 585T345 568T324 561T296 559Q280 559 265 562T239 573Q234 583 233 594T231 618Q231 644 239 663ZM45 663Q68 677
102 677Q134 677 159 663Q167 641 167 617Q167 598 164 585T151 568T130 561T102 559Q86 559 71 562T45 573Q40 583 39 594T37 618Q37 644 45 663Z" />
<glyph unicode="&#xa9;" glyph-name="copyright" horiz-adv-x="795" d="M140 83Q36 189 36 341Q36 417 64 483T140 598T255 675T397 704Q473 704 539 676T655 599T732 484T760 341Q760 265 732 199T655 84T540 7T397 -21Q244 -21 140 83ZM211 535Q138 456 138
341Q138 284 157 234T211 148T293 90T397 68Q453 68 501 89T584 147T638 234T658 341Q658 398 639 447T584 534T501 593T397 615Q285 615 211 535ZM454 372V382Q454 415 440 438T396 461Q330 461 330 344Q330 227 415 227Q453 227 504 263Q517 255 528 238T543
204Q519 179 478 163T398 146Q353 146 321 160T267 202T235 266T225 348Q225 394 239 429T278 489T333 525T397 538Q431 538 459 529T507 503T538 466T549 420Q549 366 493 366Q469 366 454 372Z" />
<glyph unicode="&#xaa;" glyph-name="ordfeminine" horiz-adv-x="441" d="M196 535L261 532V558Q261 585 246 598T207 612Q158 612 86 587Q59 617 58 660Q145 697 234 697Q295 697 334 664T374 561V405Q374 360 400 343Q398 327 386 310T358 286Q307 289 280 330Q224
281 164 281Q135 281 112 290T73 316T48 355T39 401Q39 468 82 501T196 535ZM192 363Q227 363 261 394V461Q245 462 233 462T210 463Q181 463 164 450T146 412Q146 393 157 378T192 363Z" />
<glyph unicode="&#xab;" glyph-name="guillemotleft" horiz-adv-x="589" d="M551 413L420 257L555 98Q548 77 526 57T482 31L282 216Q275 232 275 255T282 294L480 481Q501 475 522 455T551 413ZM303 413L172 257L307 98Q300 77 278 57T234 31L34 216Q27 232 27
255T34 294L232 481Q253 475 274 455T303 413Z" />
<glyph unicode="&#xac;" glyph-name="logicalnot" horiz-adv-x="530" d="M362 249L304 248H49Q44 269 44 301T49 356H469L476 349V120Q455 115 422 115T361 120V194L362 249Z" />
<glyph unicode="&#xad;" glyph-name="uni00AD" horiz-adv-x="364" d="M314 214H49Q43 236 43 268T49 322H314Q320 300 320 268T314 214Z" />
<glyph unicode="&#xae;" glyph-name="registered" horiz-adv-x="597" d="M108 284Q31 363 31 475Q31 531 52 580T109 665T193 723T298 744Q354 744 403 723T488 666T546 580T567 475Q567 419 546 370T489 285T403 228T298 207Q187 207 108 284ZM164 614Q110 557
110 475Q110 434 124 399T164 337T223 296T298 280Q338 280 373 295T433 337T472 399T487 475Q487 515 473 550T433 613T373 655T298 671Q218 671 164 614ZM200 604L305 607Q356 607 380 587T404 535Q404 505 390 488T354 466Q372 457 387 428L399 404Q409 383
422 375Q403 350 377 350Q364 350 352 357T332 380L309 425Q300 443 281 443H267V355Q260 352 252 351T233 350Q223 350 214 351T197 355V602L200 604ZM267 554V496Q282 498 293 498T313 500T326 507T331 525Q331 554 299 554H267Z" />
<glyph unicode="&#xaf;" glyph-name="overscore" horiz-adv-x="398" d="M347 573H52Q46 593 46 621T52 671H347Q352 648 352 621T347 573Z" />
<glyph unicode="&#xb0;" glyph-name="degree" horiz-adv-x="339" d="M59 408Q16 451 16 519Q16 552 27 580T59 629T108 661T169 673Q202 673 230 662T279 629T311 580T323 519Q323 486 312 458T280 409T231 377T169 365Q102 365 59 408ZM126 570Q118 560 114 547T110
519Q110 488 125 469T169 449Q196 449 212 468T228 519Q228 550 212 569T169 589Q157 589 146 584T126 570Z" />
<glyph unicode="&#xb1;" glyph-name="plusminus" horiz-adv-x="530" d="M210 404L209 465V545Q233 550 265 550T321 545V465L320 404L377 405H465Q470 381 470 356T465 306H377L320 307L321 247V166Q298 161 266 161T209 166V247L210 307L153 306H65Q60 330 60
355T65 405H153L210 404ZM465 0H65Q60 24 60 51T65 102H465Q470 78 470 51T465 0Z" />
<glyph unicode="&#xb2;" glyph-name="twosuperior" horiz-adv-x="420" d="M362 425Q362 378 350 353T296 327H82Q46 373 46 394Q45 444 117 504L199 572Q234 601 234 633Q234 652 222 664T190 677Q150 677 134 626Q123 626 111 629T87 638T66 649T52 663Q64 711
104 743T205 775Q235 775 261 765T307 737T338 696T350 646Q350 620 345 600T330 562T304 530T268 498L212 455Q163 418 161 415Q210 425 259 425H362Z" />
<glyph unicode="&#xb3;" glyph-name="threesuperior" horiz-adv-x="420" d="M318 659L266 613Q260 607 239 594Q290 591 323 556T357 460Q357 430 344 405T308 362T255 334T192 324Q102 324 44 370Q51 411 88 443Q114 426 136 419T176 411Q209 411 226 429T243
470Q243 501 225 515T183 529Q164 529 150 522Q137 527 124 545T106 580L178 647Q187 655 197 663T221 679L218 683Q191 677 139 677H66Q60 695 60 720Q60 748 69 768H319Q330 748 335 733T341 703Q341 677 318 659Z" />
<glyph unicode="&#xb4;" glyph-name="acute" horiz-adv-x="398" d="M113 591L263 755Q289 747 313 724T347 675L168 539Q128 552 113 591Z" />
<glyph unicode="&#xb6;" glyph-name="paragraph" horiz-adv-x="712" d="M281 62V243H266Q215 243 172 257T99 300T51 371T34 469Q34 579 98 633T272 688Q289 688 322 687T406 684L413 677V87Q416 -42 365 -99T201 -158Q191 -158 168 -157T122 -152T80 -143T62
-130Q62 -110 70 -82T91 -37Q121 -47 147 -52T195 -58Q237 -58 259 -32T281 62ZM656 570H609V-131Q583 -137 541 -137Q500 -137 476 -131V676L482 683H689Q696 665 696 626Q696 588 689 570H656Z" />
<glyph unicode="&#xb7;" glyph-name="middot" horiz-adv-x="318" d="M92 230Q83 249 83 285Q83 321 92 341Q121 357 158 357Q195 357 225 341Q234 317 234 285Q234 251 225 230Q200 214 158 214Q117 214 92 230Z" />
<glyph unicode="&#xb8;" glyph-name="cedilla" horiz-adv-x="398" d="M140 -76Q145 -56 151 -38T166 0H239Q234 -10 230 -18T223 -34Q268 -37 294 -61T320 -127Q320 -148 310 -166T283 -198T242 -220T193 -228Q139 -228 107 -206Q108 -170 131 -146Q150 -159 179
-159Q219 -159 219 -126Q219 -108 207 -101T181 -93Q169 -93 160 -96Q145 -88 140 -76Z" />
<glyph unicode="&#xb9;" glyph-name="onesuperior" horiz-adv-x="420" d="M46 624Q100 657 130 689T182 767Q206 772 232 772T285 767V424H367Q372 405 372 377T367 329H77Q73 350 73 377T77 424H178V544Q178 561 182 619Q156 585 95 557Q56 576 46 624Z" />
<glyph unicode="&#xba;" glyph-name="ordmasculine" horiz-adv-x="435" d="M338 653Q397 594 397 488Q397 443 386 406T353 340T296 297T217 281Q172 281 138 296T82 340T49 405T38 488Q38 534 50 572T84 638T140 681T217 697Q291 697 338 653ZM217 613Q148 613
148 489Q148 365 217 365Q287 365 287 489Q287 613 217 613Z" />
<glyph unicode="&#xbb;" glyph-name="guillemotright" horiz-adv-x="589" d="M38 99L168 255L33 414Q40 435 62 455T106 481L307 295Q313 280 313 257T307 218L109 31Q87 37 66 57T38 99ZM286 99L416 255L281 414Q288 435 310 455T354 481L555 295Q561 280 561
257T555 218L357 31Q335 37 314 57T286 99Z" />
<glyph unicode="&#xbc;" glyph-name="onequarter" horiz-adv-x="1002" d="M287 797Q341 830 371 862T423 940Q447 945 473 945T526 940V597H608Q613 578 613 550T608 502H318Q314 523 314 550T318 597H419V717Q419 734 423 792Q397 758 336 730Q297 749 287 797ZM283
0L661 683Q687 689 728 689T787 683L410 0Q383 -6 342 -6T283 0ZM937 79L906 80V6Q886 1 855 1T801 6V35L802 80L753 78H642Q618 117 618 138T633 192L748 447Q773 450 804 444T852 424L789 286Q754 204 725 168L727 166Q767 170 801 170V212Q801 249 821 270T876
291H903L907 287V233L906 170H962Q966 154 966 130T958 79H937Z" />
<glyph unicode="&#xbd;" glyph-name="onehalf" horiz-adv-x="1002" d="M287 797Q341 830 371 862T423 940Q447 945 473 945T526 940V597H608Q613 578 613 550T608 502H318Q314 523 314 550T318 597H419V717Q419 734 423 792Q397 758 336 730Q297 749 287 797ZM270
0L648 683Q674 689 715 689T774 683L397 0Q370 -6 329 -6T270 0ZM959 102Q959 55 947 30T893 4H679Q643 50 643 71Q642 121 714 181L796 249Q831 278 831 310Q831 329 819 341T787 354Q747 354 731 303Q720 303 708 306T684 315T663 326T649 340Q661 388 701 420T802
452Q832 452 858 442T904 414T935 373T947 323Q947 297 942 277T927 239T901 207T865 175L809 132Q760 95 758 92Q807 102 856 102H959Z" />
<glyph unicode="&#xbe;" glyph-name="threequarters" horiz-adv-x="1002" d="M320 832L268 786Q262 780 241 767Q292 764 325 729T359 633Q359 603 346 578T310 535T257 507T194 497Q104 497 46 543Q53 584 90 616Q116 599 138 592T178 584Q211 584 228 602T245
643Q245 674 227 688T185 702Q166 702 152 695Q139 700 126 718T108 753L180 820Q189 828 199 836T223 852L220 856Q193 850 141 850H68Q62 868 62 893Q62 921 71 941H321Q332 921 337 906T343 876Q343 850 320 832ZM260 0L638 683Q664 689 705 689T764 683L387
0Q360 -6 319 -6T260 0ZM924 79L893 80V6Q873 1 842 1T788 6V35L789 80L740 78H629Q605 117 605 138T620 192L735 447Q760 450 791 444T839 424L776 286Q741 204 712 168L714 166Q754 170 788 170V212Q788 249 808 270T863 291H890L894 287V233L893 170H949Q953
154 953 130T945 79H924Z" />
<glyph unicode="&#xbf;" glyph-name="questiondown" horiz-adv-x="409" d="M408 -149Q312 -203 214 -203Q117 -203 65 -156T13 -27Q13 97 143 169L205 203L214 291Q225 294 237 296T263 298Q276 298 289 296T313 291L320 142L309 129L257 104Q205 79 178 51T150
-12Q150 -44 172 -67T239 -91Q263 -91 293 -83T360 -54Q369 -61 377 -72T392 -96T403 -123T408 -149ZM328 386Q302 371 260 371Q242 371 228 373T204 382T190 401T186 438Q186 462 189 475T203 495T228 503T261 506Q279 506 293 504T318 497T333 478T337 438Q337
401 328 386Z" />
<glyph unicode="&#xc0;" glyph-name="Agrave" horiz-adv-x="625" d="M426 155L377 154H237L188 155L141 -1Q120 -6 82 -6T19 3L14 10L237 683Q274 688 317 688T392 682L611 9Q582 -8 542 -8T484 7T454 64L426 155ZM221 261L266 262H352L394 261L364 363Q330 477
310 557H304Q295 514 260 388L221 261ZM227 921L440 792Q432 746 402 728L173 820Q175 848 192 877T227 921Z" />
<glyph unicode="&#xc1;" glyph-name="Aacute" horiz-adv-x="625" d="M426 155L377 154H237L188 155L141 -1Q120 -6 82 -6T19 3L14 10L237 683Q274 688 317 688T392 682L611 9Q582 -8 542 -8T484 7T454 64L426 155ZM221 261L266 262H352L394 261L364 363Q330 477
310 557H304Q295 514 260 388L221 261ZM202 792L415 921Q433 907 450 878T469 820L240 728Q226 736 215 755T202 792Z" />
<glyph unicode="&#xc2;" glyph-name="Acircumflex" horiz-adv-x="625" d="M426 155L377 154H237L188 155L141 -1Q120 -6 82 -6T19 3L14 10L237 683Q274 688 317 688T392 682L611 9Q582 -8 542 -8T484 7T454 64L426 155ZM221 261L266 262H352L394 261L364 363Q330
477 310 557H304Q295 514 260 388L221 261ZM429 736L314 810L196 726Q180 732 163 748T141 782L258 899Q315 911 369 899L482 791Q476 772 461 757T429 736Z" />
<glyph unicode="&#xc3;" glyph-name="Atilde" horiz-adv-x="625" d="M426 155L377 154H237L188 155L141 -1Q120 -6 82 -6T19 3L14 10L237 683Q274 688 317 688T392 682L611 9Q582 -8 542 -8T484 7T454 64L426 155ZM221 261L266 262H352L394 261L364 363Q330 477
310 557H304Q295 514 260 388L221 261ZM321 758L270 782Q263 786 255 788T239 791Q218 792 200 767L190 753Q170 754 151 765T124 793L133 812Q170 893 247 893Q262 894 277 889T309 876L360 852Q368 848 375 846T391 843Q412 842 430 867L440 880Q460 880 479
869T506 841L497 822Q459 741 383 741Q352 741 321 758Z" />
<glyph unicode="&#xc4;" glyph-name="Adieresis" horiz-adv-x="625" d="M426 155L377 154H237L188 155L141 -1Q120 -6 82 -6T19 3L14 10L237 683Q274 688 317 688T392 682L611 9Q582 -8 542 -8T484 7T454 64L426 155ZM221 261L266 262H352L394 261L364 363Q330
477 310 557H304Q295 514 260 388L221 261ZM481 842Q492 825 492 795Q492 775 488 762T473 745T452 739T427 736Q415 736 403 738T379 745T363 762T358 796Q358 816 363 829T379 847T402 853T427 856Q456 856 481 842ZM149 842Q171 856 202 856Q214 856 226 854T249
848T265 831T270 796Q270 774 266 762T250 745T226 738T202 736Q174 737 156 745T138 795Q138 825 149 842Z" />
<glyph unicode="&#xc5;" glyph-name="Aring" horiz-adv-x="625" d="M426 155L356 154H237L188 155L141 -1Q118 -6 81 -6Q43 -6 19 3L14 10L237 683H240Q183 717 183 784Q183 809 193 831T220 870T262 895T315 905Q344 905 368 896T409 870T436 832T446 784Q446
717 388 683H392L611 9Q582 -8 541 -8Q521 -8 507 -5T484 7T467 29T454 64L426 155ZM221 261L265 262H352L394 261L364 363Q347 420 333 468T310 557H304Q299 535 288 493T260 388L221 261ZM315 837Q293 837 279 822T265 784Q265 760 280 746T318 732Q341 732 352
748T363 785Q363 805 351 821T315 837Z" />
<glyph unicode="&#xc6;" glyph-name="AE" horiz-adv-x="882" d="M525 172L524 109Q566 111 594 111H841Q841 79 838 62Q827 -2 752 -2H471Q435 -2 415 19T395 78V155Q380 154 351 154H262Q231 154 215 155L145 0Q126 -5 81 -5T14 4L10 10L321 671Q348 683 402
683H818Q823 658 823 630T812 570H524L525 501V398Q550 399 590 399H761Q769 376 769 344T761 289H525V172ZM350 261L395 260V557H390Q350 451 321 388L263 260L299 261H350Z" />
<glyph unicode="&#xc7;" glyph-name="Ccedilla" horiz-adv-x="606" d="M258 -76Q262 -59 267 -43T278 -12Q213 -6 169 25T96 105T55 213T42 339Q42 429 64 496T123 608T211 675T319 698Q378 698 425 682T506 639T557 575T575 496Q575 421 499 421Q488 421 475
422T446 428V438Q446 471 439 498T417 546T379 578T322 590Q249 590 216 525T183 326Q183 220 223 162T334 103Q371 103 414 120T508 176Q529 162 548 137T572 89Q534 51 475 23T351 -12Q344 -24 341 -34Q386 -37 412 -61T438 -127Q438 -148 428 -166T401 -198T360
-220T311 -228Q257 -228 226 -206Q227 -169 249 -146Q268 -159 297 -159Q337 -159 337 -126Q337 -108 326 -101T299 -93Q287 -93 278 -96Q263 -88 258 -76Z" />
<glyph unicode="&#xc8;" glyph-name="Egrave" horiz-adv-x="570" d="M215 171L214 109L284 111H529Q529 79 526 62Q515 -2 440 -2H159Q123 -2 103 19T82 78V676L89 683H506Q511 658 511 630T500 570H214L215 501V398L280 399H449Q457 376 457 344T449 289H215V171ZM210
921L423 792Q415 746 385 728L156 820Q158 848 175 877T210 921Z" />
<glyph unicode="&#xc9;" glyph-name="Eacute" horiz-adv-x="570" d="M215 171L214 109L284 111H529Q529 79 526 62Q515 -2 440 -2H159Q123 -2 103 19T82 78V676L89 683H506Q511 658 511 630T500 570H214L215 501V398L280 399H449Q457 376 457 344T449 289H215V171ZM186
792L399 921Q417 907 434 878T453 820L224 728Q210 736 199 755T186 792Z" />
<glyph unicode="&#xca;" glyph-name="Ecircumflex" horiz-adv-x="570" d="M215 171L214 109L284 111H529Q529 79 526 62Q515 -2 440 -2H159Q123 -2 103 19T82 78V676L89 683H506Q511 658 511 630T500 570H214L215 501V398L280 399H449Q457 376 457 344T449 289H215V171ZM413
736L298 810L180 726Q164 732 147 748T125 782L242 899Q299 911 353 899L466 791Q460 772 445 757T413 736Z" />
<glyph unicode="&#xcb;" glyph-name="Edieresis" horiz-adv-x="570" d="M215 171L214 109L284 111H529Q529 79 526 62Q515 -2 440 -2H159Q123 -2 103 19T82 78V676L89 683H506Q511 658 511 630T500 570H214L215 501V398L280 399H449Q457 376 457 344T449 289H215V171ZM465
842Q476 825 476 795Q476 775 472 762T457 745T436 739T411 736Q399 736 387 738T363 745T347 762T342 796Q342 816 347 829T363 847T386 853T411 856Q440 856 465 842ZM133 842Q155 856 186 856Q198 856 210 854T233 848T249 831T254 796Q254 774 250 762T234
745T210 738T186 736Q158 737 140 745T122 795Q122 825 133 842Z" />
<glyph unicode="&#xcc;" glyph-name="Igrave" horiz-adv-x="306" d="M86 0V683Q111 688 151 688T220 683V0Q192 -5 152 -5T86 0ZM321 921L534 792Q526 746 496 728L267 820Q269 848 286 877T321 921Z" />
<glyph unicode="&#xcd;" glyph-name="Iacute" horiz-adv-x="306" d="M86 0V683Q111 688 151 688T220 683V0Q192 -5 152 -5T86 0ZM297 792L510 921Q528 907 545 878T564 820L335 728Q321 736 310 755T297 792Z" />
<glyph unicode="&#xce;" glyph-name="Icircumflex" horiz-adv-x="306" d="M86 0V683Q111 688 151 688T220 683V0Q192 -5 152 -5T86 0ZM525 736L410 810L292 726Q276 732 259 748T237 782L354 899Q411 911 465 899L578 791Q572 772 557 757T525 736Z" />
<glyph unicode="&#xcf;" glyph-name="Idieresis" horiz-adv-x="306" d="M86 0V683Q111 688 151 688T220 683V0Q192 -5 152 -5T86 0ZM576 842Q587 825 587 795Q587 775 583 762T568 745T547 739T522 736Q510 736 498 738T474 745T458 762T453 796Q453 816 458 829T474
847T497 853T522 856Q551 856 576 842ZM244 842Q266 856 297 856Q309 856 321 854T344 848T360 831T365 796Q365 774 361 762T345 745T321 738T297 736Q269 737 251 745T233 795Q233 825 244 842Z" />
<glyph unicode="&#xd0;" glyph-name="Eth" horiz-adv-x="673" d="M521 45Q489 19 438 7T333 -5Q306 -5 250 -4T105 -1L98 5V292H26Q23 302 22 316T21 345Q21 360 22 374T26 401H98V678L105 684Q163 686 222 687T342 688Q426 688 481 661T570 587T616 476T630 341Q630
241 608 169T521 45ZM370 292H230V100Q250 101 275 101T329 101Q384 101 416 121T465 177T486 256T491 342Q491 388 485 431T463 509T417 562T342 582Q306 582 278 582T230 583V401H370Q372 389 373 375T375 345Q375 314 370 292Z" />
<glyph unicode="&#xd1;" glyph-name="Ntilde" horiz-adv-x="688" d="M598 689L605 682V2Q574 -5 527 -5T445 0L261 387Q221 475 201 527L197 526Q208 385 208 254V0Q180 -5 145 -5T83 0V681Q112 688 159 688T241 683L423 296L488 148L491 149Q481 294 481 423V606Q481
651 498 670T555 689H598ZM353 758L302 782Q295 786 287 788T271 791Q250 792 232 767L222 753Q202 754 183 765T156 793L165 812Q202 893 279 893Q294 894 309 889T341 876L392 852Q400 848 407 846T423 843Q444 842 462 867L472 880Q492 880 511 869T538 841L529
822Q491 741 415 741Q384 741 353 758Z" />
<glyph unicode="&#xd2;" glyph-name="Ograve" horiz-adv-x="662" d="M479 341Q479 592 331 592Q183 592 183 341Q183 91 331 91Q479 91 479 341ZM149 47Q42 139 42 341Q42 426 61 492T118 603T209 673T332 697Q400 697 453 673T544 604T600 492T620 341Q620 257
601 191T544 80T454 10T332 -14Q223 -14 149 47ZM242 921L455 792Q447 746 417 728L188 820Q190 848 207 877T242 921Z" />
<glyph unicode="&#xd3;" glyph-name="Oacute" horiz-adv-x="662" d="M479 341Q479 592 331 592Q183 592 183 341Q183 91 331 91Q479 91 479 341ZM149 47Q42 139 42 341Q42 426 61 492T118 603T209 673T332 697Q400 697 453 673T544 604T600 492T620 341Q620 257
601 191T544 80T454 10T332 -14Q223 -14 149 47ZM218 792L431 921Q449 907 466 878T485 820L256 728Q242 736 231 755T218 792Z" />
<glyph unicode="&#xd4;" glyph-name="Ocircumflex" horiz-adv-x="662" d="M479 341Q479 592 331 592Q183 592 183 341Q183 91 331 91Q479 91 479 341ZM149 47Q42 139 42 341Q42 426 61 492T118 603T209 673T332 697Q400 697 453 673T544 604T600 492T620 341Q620
257 601 191T544 80T454 10T332 -14Q223 -14 149 47ZM445 736L330 810L212 726Q196 732 179 748T157 782L274 899Q331 911 385 899L498 791Q492 772 477 757T445 736Z" />
<glyph unicode="&#xd5;" glyph-name="Otilde" horiz-adv-x="662" d="M479 341Q479 592 331 592Q183 592 183 341Q183 91 331 91Q479 91 479 341ZM149 47Q42 139 42 341Q42 426 61 492T118 603T209 673T332 697Q400 697 453 673T544 604T600 492T620 341Q620 257
601 191T544 80T454 10T332 -14Q223 -14 149 47ZM331 758L280 782Q273 786 265 788T249 791Q228 792 210 767L200 753Q180 754 161 765T134 793L143 812Q180 893 257 893Q272 894 287 889T319 876L370 852Q378 848 385 846T401 843Q422 842 440 867L450 880Q470
880 489 869T516 841L507 822Q469 741 393 741Q362 741 331 758Z" />
<glyph unicode="&#xd6;" glyph-name="Odieresis" horiz-adv-x="662" d="M479 341Q479 592 331 592Q183 592 183 341Q183 91 331 91Q479 91 479 341ZM149 47Q42 139 42 341Q42 426 61 492T118 603T209 673T332 697Q400 697 453 673T544 604T600 492T620 341Q620
257 601 191T544 80T454 10T332 -14Q223 -14 149 47ZM497 842Q508 825 508 795Q508 775 504 762T489 745T468 739T443 736Q431 736 419 738T395 745T379 762T374 796Q374 816 379 829T395 847T418 853T443 856Q472 856 497 842ZM165 842Q187 856 218 856Q230 856
242 854T265 848T281 831T286 796Q286 774 282 762T266 745T242 738T218 736Q190 737 172 745T154 795Q154 825 165 842Z" />
<glyph unicode="&#xd7;" glyph-name="multiply" horiz-adv-x="530" d="M265 220Q251 206 240 195T142 96Q116 108 96 129T64 174L150 260L188 296Q181 303 168 316T150 333L64 419Q90 475 142 497L228 411Q252 385 265 373Q294 403 301 410L387 497Q440 470 465
419L341 296L379 260L465 174Q453 148 434 128T387 96L301 183Q293 190 265 220Z" />
<glyph unicode="&#xd8;" glyph-name="Oslash" horiz-adv-x="665" d="M42 342Q42 424 61 490T117 602T208 672T332 697Q402 697 453 675L495 748Q549 740 580 702L533 618Q623 520 623 342Q623 260 604 195T548 83T457 11T332 -14Q265 -14 211 8L170 -63Q147 -60
123 -47T86 -17L132 64Q42 161 42 342ZM199 190L401 578Q369 596 328 596Q284 596 255 574T209 515T185 427T178 320Q178 250 199 190ZM465 492L263 104Q292 87 335 87Q382 87 412 110T458 173T481 261T487 363Q487 433 465 492Z" />
<glyph unicode="&#xd9;" glyph-name="Ugrave" horiz-adv-x="671" d="M597 683V246Q597 121 529 54T335 -14Q211 -14 143 53T74 246V682L80 689H130Q170 689 189 669T208 603V245Q208 93 335 93Q463 93 463 245V683Q491 688 530 688Q569 688 597 683ZM245 921L458
792Q450 746 420 728L191 820Q193 848 210 877T245 921Z" />
<glyph unicode="&#xda;" glyph-name="Uacute" horiz-adv-x="671" d="M597 683V246Q597 121 529 54T335 -14Q211 -14 143 53T74 246V682L80 689H130Q170 689 189 669T208 603V245Q208 93 335 93Q463 93 463 245V683Q491 688 530 688Q569 688 597 683ZM221 792L434
921Q452 907 469 878T488 820L259 728Q245 736 234 755T221 792Z" />
<glyph unicode="&#xdb;" glyph-name="Ucircumflex" horiz-adv-x="671" d="M597 683V246Q597 121 529 54T335 -14Q211 -14 143 53T74 246V682L80 689H130Q170 689 189 669T208 603V245Q208 93 335 93Q463 93 463 245V683Q491 688 530 688Q569 688 597 683ZM448
736L333 810L215 726Q199 732 182 748T160 782L277 899Q334 911 388 899L501 791Q495 772 480 757T448 736Z" />
<glyph unicode="&#xdc;" glyph-name="Udieresis" horiz-adv-x="671" d="M597 683V246Q597 121 529 54T335 -14Q211 -14 143 53T74 246V682L80 689H130Q170 689 189 669T208 603V245Q208 93 335 93Q463 93 463 245V683Q491 688 530 688Q569 688 597 683ZM501 842Q512
825 512 795Q512 775 508 762T493 745T472 739T447 736Q435 736 423 738T399 745T383 762T378 796Q378 816 383 829T399 847T422 853T447 856Q476 856 501 842ZM169 842Q191 856 222 856Q234 856 246 854T269 848T285 831T290 796Q290 774 286 762T270 745T246
738T222 736Q194 737 176 745T158 795Q158 825 169 842Z" />
<glyph unicode="&#xdd;" glyph-name="Yacute" horiz-adv-x="523" d="M316 485L395 683Q418 688 453 688T516 679L521 671L329 213V0Q303 -5 262 -5T195 0V217L3 667Q45 691 79 691T129 678T157 635L220 481Q246 413 263 347H269Q285 405 316 485ZM153 792L366
921Q384 907 401 878T420 820L191 728Q177 736 166 755T153 792Z" />
<glyph unicode="&#xde;" glyph-name="Thorn" horiz-adv-x="581" d="M217 585L307 586Q361 586 405 573T481 531T529 462T546 365Q546 309 529 267T481 197T405 155T307 140H217V0Q189 -5 150 -5Q111 -5 83 0V683Q111 688 150 688Q189 688 217 683V585ZM299 482H217V244Q244
245 277 244T339 250T388 285T408 363Q408 388 402 410T384 448T350 473T299 482Z" />
<glyph unicode="&#xdf;" glyph-name="germandbls" horiz-adv-x="642" d="M100 0V375L14 374Q11 386 10 399T9 425Q9 438 10 450T14 476L100 475V503Q100 598 162 648T330 699Q382 699 425 685T499 643T547 579T564 495Q564 459 548 418Q515 408 496 391T476 354Q475
331 504 305L542 269Q614 200 614 133Q614 100 600 73T560 27T501 -3T427 -14Q349 -14 291 15Q291 26 294 39T303 64T314 88T329 106Q351 95 371 90T408 85Q437 85 456 98T476 134Q476 147 468 162T441 195L400 232Q337 289 337 343Q337 378 361 411T428 461Q431
476 431 492Q431 538 405 568T330 599Q233 599 233 489V0Q216 -3 200 -4T166 -5Q149 -5 133 -4T100 0Z" />
<glyph unicode="&#xe0;" glyph-name="agrave" horiz-adv-x="510" d="M473 60Q468 42 455 22T429 -8Q364 0 334 49Q269 -14 192 -14Q153 -14 124 -2T75 32T46 80T36 136Q36 178 50 209T91 262T153 294T231 305Q285 305 315 302V329Q315 405 241 405Q191 405 89
370Q61 401 55 463Q161 508 274 508Q349 508 397 466T445 339V134Q445 81 473 60ZM221 85Q271 85 315 129V216Q299 217 284 218T255 219Q211 219 188 203T165 148Q165 118 180 102T221 85ZM192 755L341 591Q334 573 319 559T286 539L108 675Q116 700 141 723T192
755Z" />
<glyph unicode="&#xe1;" glyph-name="aacute" horiz-adv-x="510" d="M473 60Q468 42 455 22T429 -8Q364 0 334 49Q269 -14 192 -14Q153 -14 124 -2T75 32T46 80T36 136Q36 178 50 209T91 262T153 294T231 305Q285 305 315 302V329Q315 405 241 405Q191 405 89
370Q61 401 55 463Q161 508 274 508Q349 508 397 466T445 339V134Q445 81 473 60ZM221 85Q271 85 315 129V216Q299 217 284 218T255 219Q211 219 188 203T165 148Q165 118 180 102T221 85ZM163 591L313 755Q339 747 363 724T397 675L218 539Q178 552 163 591Z"
/>
<glyph unicode="&#xe2;" glyph-name="acircumflex" horiz-adv-x="510" d="M473 60Q468 42 455 22T429 -8Q364 0 334 49Q269 -14 192 -14Q153 -14 124 -2T75 32T46 80T36 136Q36 178 50 209T91 262T153 294T231 305Q285 305 315 302V329Q315 405 241 405Q191 405
89 370Q61 401 55 463Q161 508 274 508Q349 508 397 466T445 339V134Q445 81 473 60ZM221 85Q271 85 315 129V216Q299 217 284 218T255 219Q211 219 188 203T165 148Q165 118 180 102T221 85ZM343 549L250 638L152 543Q114 557 93 594L198 729Q246 745 307 729L401
604Q393 585 376 570T343 549Z" />
<glyph unicode="&#xe3;" glyph-name="atilde" horiz-adv-x="510" d="M473 60Q468 42 455 22T429 -8Q364 0 334 49Q269 -14 192 -14Q153 -14 124 -2T75 32T46 80T36 136Q36 178 50 209T91 262T153 294T231 305Q285 305 315 302V329Q315 405 241 405Q191 405 89
370Q61 401 55 463Q161 508 274 508Q349 508 397 466T445 339V134Q445 81 473 60ZM221 85Q271 85 315 129V216Q299 217 284 218T255 219Q211 219 188 203T165 148Q165 118 180 102T221 85ZM253 572L204 596Q197 600 190 602T175 605Q166 605 156 600T136 581L126
567Q107 568 89 579T64 607L73 627Q87 667 118 687T184 707Q216 707 241 691L290 666Q298 662 305 660T320 657Q337 656 358 682L368 695Q386 695 404 684T430 655L421 636Q382 556 313 556Q281 556 253 572Z" />
<glyph unicode="&#xe4;" glyph-name="adieresis" horiz-adv-x="510" d="M473 60Q468 42 455 22T429 -8Q364 0 334 49Q269 -14 192 -14Q153 -14 124 -2T75 32T46 80T36 136Q36 178 50 209T91 262T153 294T231 305Q285 305 315 302V329Q315 405 241 405Q191 405
89 370Q61 401 55 463Q161 508 274 508Q349 508 397 466T445 339V134Q445 81 473 60ZM221 85Q271 85 315 129V216Q299 217 284 218T255 219Q211 219 188 203T165 148Q165 118 180 102T221 85ZM287 663Q310 677 344 677Q376 677 401 663Q409 641 409 617Q409 598
406 585T393 568T372 561T344 559Q328 559 313 562T287 573Q282 583 281 594T279 618Q279 644 287 663ZM93 663Q116 677 150 677Q182 677 207 663Q215 641 215 617Q215 598 212 585T199 568T178 561T150 559Q134 559 119 562T93 573Q88 583 87 594T85 618Q85 644
93 663Z" />
<glyph unicode="&#xe5;" glyph-name="aring" horiz-adv-x="510" d="M473 60Q468 42 455 22T429 -8Q364 0 334 49Q269 -14 192 -14Q153 -14 124 -2T75 32T46 80T36 136Q36 178 50 209T91 262T153 294T231 305Q285 305 315 302V329Q315 405 241 405Q191 405 89 370Q61
401 55 463Q161 508 274 508Q349 508 397 466T445 339V134Q445 81 473 60ZM221 85Q271 85 315 129V216Q299 217 284 218T255 219Q211 219 188 203T165 148Q165 118 180 102T221 85ZM152 576Q116 610 116 662Q116 688 126 710T153 748T194 774T247 783Q276 783 300
774T341 748T368 709T378 662Q378 637 369 615T342 577T300 551T247 541Q190 541 152 576ZM211 700Q203 692 200 683T197 662Q197 640 210 625T247 610Q269 610 283 625T297 662Q297 684 283 699T247 715Q237 715 228 712T211 700Z" />
<glyph unicode="&#xe6;" glyph-name="ae" horiz-adv-x="768" d="M719 206H445Q448 150 470 119T548 88Q576 88 609 96T679 123Q709 94 717 43Q637 -14 527 -14Q416 -14 361 62Q288 -14 186 -14Q150 -14 122 -2T75 32T46 80T36 136Q36 178 50 209T91 262T153 294T231
305Q254 305 274 304T315 301V330Q315 405 242 405Q186 405 89 370Q61 401 55 463Q161 508 265 508Q348 508 392 455Q448 510 535 510Q578 510 614 495T675 451T715 383T730 298Q730 273 727 251T719 206ZM221 85Q279 85 327 139Q317 179 315 216Q299 217 284 218T255
219Q213 219 189 203T165 148Q165 118 180 102T221 85ZM527 416Q451 416 445 298H607V309Q607 357 588 386T527 416Z" />
<glyph unicode="&#xe7;" glyph-name="ccedilla" horiz-adv-x="473" d="M190 -76Q201 -34 211 -11Q125 2 81 71T37 246Q37 314 54 364T102 446T170 494T251 510Q295 510 330 498T390 464T428 413T442 352Q442 320 426 303T376 285Q359 285 324 290Q324 353 309
382T251 412Q171 412 171 246Q171 164 194 127T268 90Q294 90 324 101T386 136Q402 126 417 104T437 61Q376 0 283 -12Q276 -24 273 -34Q318 -37 344 -61T370 -127Q370 -148 360 -166T333 -198T292 -220T243 -228Q189 -228 158 -206Q159 -172 181 -146Q203 -159
229 -159Q269 -159 269 -126Q269 -107 258 -100T232 -93Q220 -93 210 -96Q197 -89 190 -76Z" />
<glyph unicode="&#xe8;" glyph-name="egrave" horiz-adv-x="498" d="M446 206H170Q173 151 195 120T274 88Q332 88 407 122Q436 92 444 43Q364 -14 252 -14Q146 -14 92 51T37 246Q37 306 51 354T92 437T158 491T247 510Q298 510 337 495T403 451T443 383T457 298Q457
273 454 251T446 206ZM253 416Q175 416 169 298H335V310Q335 358 315 387T253 416ZM199 755L348 591Q341 573 326 559T293 539L115 675Q123 700 148 723T199 755Z" />
<glyph unicode="&#xe9;" glyph-name="eacute" horiz-adv-x="498" d="M446 206H170Q173 151 195 120T274 88Q332 88 407 122Q436 92 444 43Q364 -14 252 -14Q146 -14 92 51T37 246Q37 306 51 354T92 437T158 491T247 510Q298 510 337 495T403 451T443 383T457 298Q457
273 454 251T446 206ZM253 416Q175 416 169 298H335V310Q335 358 315 387T253 416ZM170 591L320 755Q346 747 370 724T404 675L225 539Q185 552 170 591Z" />
<glyph unicode="&#xea;" glyph-name="ecircumflex" horiz-adv-x="498" d="M446 206H170Q173 151 195 120T274 88Q332 88 407 122Q436 92 444 43Q364 -14 252 -14Q146 -14 92 51T37 246Q37 306 51 354T92 437T158 491T247 510Q298 510 337 495T403 451T443 383T457
298Q457 273 454 251T446 206ZM253 416Q175 416 169 298H335V310Q335 358 315 387T253 416ZM351 549L258 638L160 543Q122 557 101 594L206 729Q254 745 315 729L409 604Q401 585 384 570T351 549Z" />
<glyph unicode="&#xeb;" glyph-name="edieresis" horiz-adv-x="498" d="M446 206H170Q173 151 195 120T274 88Q332 88 407 122Q436 92 444 43Q364 -14 252 -14Q146 -14 92 51T37 246Q37 306 51 354T92 437T158 491T247 510Q298 510 337 495T403 451T443 383T457
298Q457 273 454 251T446 206ZM253 416Q175 416 169 298H335V310Q335 358 315 387T253 416ZM295 663Q318 677 352 677Q384 677 409 663Q417 641 417 617Q417 598 414 585T401 568T380 561T352 559Q336 559 321 562T295 573Q290 583 289 594T287 618Q287 644 295
663ZM101 663Q124 677 158 677Q190 677 215 663Q223 641 223 617Q223 598 220 585T207 568T186 561T158 559Q142 559 127 562T101 573Q96 583 95 594T93 618Q93 644 101 663Z" />
<glyph unicode="&#xec;" glyph-name="igrave" horiz-adv-x="285" d="M218 395V0Q188 -5 154 -5T87 0V348Q87 403 42 403H29Q23 426 23 449T29 495Q76 500 105 500H122Q166 500 192 472T218 395ZM333 755L482 591Q475 573 460 559T427 539L249 675Q257 700 282
723T333 755Z" />
<glyph unicode="&#xed;" glyph-name="iacute" horiz-adv-x="285" d="M218 395V0Q188 -5 154 -5T87 0V348Q87 403 42 403H29Q23 426 23 449T29 495Q76 500 105 500H122Q166 500 192 472T218 395ZM305 591L455 755Q481 747 505 724T539 675L360 539Q320 552 305 591Z" />
<glyph unicode="&#xee;" glyph-name="icircumflex" horiz-adv-x="285" d="M218 395V0Q188 -5 154 -5T87 0V348Q87 403 42 403H29Q23 426 23 449T29 495Q76 500 105 500H122Q166 500 192 472T218 395ZM485 549L392 638L294 543Q256 557 235 594L340 729Q388 745
449 729L543 604Q535 585 518 570T485 549Z" />
<glyph unicode="&#xef;" glyph-name="idieresis" horiz-adv-x="285" d="M218 395V0Q188 -5 154 -5T87 0V348Q87 403 42 403H29Q23 426 23 449T29 495Q76 500 105 500H122Q166 500 192 472T218 395ZM428 663Q451 677 485 677Q517 677 542 663Q550 641 550 617Q550
598 547 585T534 568T513 561T485 559Q469 559 454 562T428 573Q423 583 422 594T420 618Q420 644 428 663ZM234 663Q257 677 291 677Q323 677 348 663Q356 641 356 617Q356 598 353 585T340 568T319 561T291 559Q275 559 260 562T234 573Q229 583 228 594T226
618Q226 644 234 663Z" />
<glyph unicode="&#xf0;" glyph-name="eth" horiz-adv-x="519" d="M97 571L176 625Q145 648 105 670Q108 693 123 717T156 750Q215 726 268 688L353 747Q389 723 398 684L330 637Q482 490 482 247Q482 187 467 139T424 57T353 5T258 -14Q205 -14 164 4T94 56T50
136T35 239Q35 296 50 341T94 419T161 469T249 487Q275 487 304 475Q286 523 236 573L141 508Q104 535 97 571ZM348 247Q348 320 336 370Q298 393 260 393Q169 393 169 238Q169 83 258 83Q348 83 348 247Z" />
<glyph unicode="&#xf1;" glyph-name="ntilde" horiz-adv-x="546" d="M481 334V116Q481 52 502 21Q470 -7 425 -7Q382 -7 366 12T350 74V307Q350 352 339 370T298 388Q245 388 199 340V0Q184 -3 168 -4T134 -5Q117 -5 101 -4T69 0V495L75 502H125Q181 502 195 442Q268
505 340 505Q412 505 446 459T481 334ZM286 572L237 596Q230 600 223 602T208 605Q199 605 189 600T169 581L159 567Q140 568 122 579T97 607L106 627Q120 667 151 687T217 707Q249 707 274 691L323 666Q331 662 338 660T353 657Q370 656 391 682L401 695Q419 695
437 684T463 655L454 636Q415 556 346 556Q314 556 286 572Z" />
<glyph unicode="&#xf2;" glyph-name="ograve" horiz-adv-x="521" d="M413 454Q484 383 484 248Q484 188 469 140T426 57T355 5T260 -14Q207 -14 166 4T96 57T52 139T37 248Q37 369 95 439T260 510Q354 510 413 454ZM260 412Q171 412 171 248Q171 85 260 85Q350
85 350 248Q350 412 260 412ZM205 755L354 591Q347 573 332 559T299 539L121 675Q129 700 154 723T205 755Z" />
<glyph unicode="&#xf3;" glyph-name="oacute" horiz-adv-x="521" d="M413 454Q484 383 484 248Q484 188 469 140T426 57T355 5T260 -14Q207 -14 166 4T96 57T52 139T37 248Q37 369 95 439T260 510Q354 510 413 454ZM260 412Q171 412 171 248Q171 85 260 85Q350
85 350 248Q350 412 260 412ZM176 591L326 755Q352 747 376 724T410 675L231 539Q191 552 176 591Z" />
<glyph unicode="&#xf4;" glyph-name="ocircumflex" horiz-adv-x="521" d="M413 454Q484 383 484 248Q484 188 469 140T426 57T355 5T260 -14Q207 -14 166 4T96 57T52 139T37 248Q37 369 95 439T260 510Q354 510 413 454ZM260 412Q171 412 171 248Q171 85 260 85Q350
85 350 248Q350 412 260 412ZM356 549L263 638L165 543Q127 557 106 594L211 729Q259 745 320 729L414 604Q406 585 389 570T356 549Z" />
<glyph unicode="&#xf5;" glyph-name="otilde" horiz-adv-x="521" d="M413 454Q484 383 484 248Q484 188 469 140T426 57T355 5T260 -14Q207 -14 166 4T96 57T52 139T37 248Q37 369 95 439T260 510Q354 510 413 454ZM260 412Q171 412 171 248Q171 85 260 85Q350
85 350 248Q350 412 260 412ZM266 572L217 596Q210 600 203 602T188 605Q179 605 169 600T149 581L139 567Q120 568 102 579T77 607L86 627Q100 667 131 687T197 707Q229 707 254 691L303 666Q311 662 318 660T333 657Q350 656 371 682L381 695Q399 695 417 684T443
655L434 636Q395 556 326 556Q294 556 266 572Z" />
<glyph unicode="&#xf6;" glyph-name="odieresis" horiz-adv-x="521" d="M413 454Q484 383 484 248Q484 188 469 140T426 57T355 5T260 -14Q207 -14 166 4T96 57T52 139T37 248Q37 369 95 439T260 510Q354 510 413 454ZM260 412Q171 412 171 248Q171 85 260 85Q350
85 350 248Q350 412 260 412ZM300 663Q323 677 357 677Q389 677 414 663Q422 641 422 617Q422 598 419 585T406 568T385 561T357 559Q341 559 326 562T300 573Q295 583 294 594T292 618Q292 644 300 663ZM106 663Q129 677 163 677Q195 677 220 663Q228 641 228
617Q228 598 225 585T212 568T191 561T163 559Q147 559 132 562T106 573Q101 583 100 594T98 618Q98 644 106 663Z" />
<glyph unicode="&#xf7;" glyph-name="divide" horiz-adv-x="530" d="M205 427Q195 447 195 475Q198 520 209 526T266 536Q302 535 318 526T334 475Q334 434 320 425T264 414Q224 414 205 427ZM205 70Q195 89 195 117Q195 161 211 168T266 178Q302 176 318 168T334
117Q334 74 319 66T264 57Q224 57 205 70ZM476 243H54Q51 254 50 267T49 296Q49 310 50 324T54 351H476Q478 339 479 325T481 296Q481 266 476 243Z" />
<glyph unicode="&#xf8;" glyph-name="oslash" horiz-adv-x="524" d="M415 453Q485 383 485 248Q485 126 427 56T262 -14Q213 -14 174 1L139 -58Q96 -49 70 -20L107 45Q38 114 38 249Q38 309 52 357T95 439T166 491T262 510Q309 510 348 495L383 556Q428 545 452
518L415 453ZM363 249Q363 301 353 338L222 88Q241 80 262 80Q363 80 363 249ZM160 249Q160 193 170 160L301 409Q282 417 262 417Q160 417 160 249Z" />
<glyph unicode="&#xf9;" glyph-name="ugrave" horiz-adv-x="548" d="M65 162V381Q65 443 44 476Q77 504 120 504T180 484T196 422V189Q196 146 207 128T248 109Q301 109 347 155V496Q369 501 411 501T478 496V141Q478 82 506 58Q501 40 489 21T462 -8Q389 -1 361
63Q284 -9 202 -9Q135 -9 100 38T65 162ZM211 755L360 591Q353 573 338 559T305 539L127 675Q135 700 160 723T211 755Z" />
<glyph unicode="&#xfa;" glyph-name="uacute" horiz-adv-x="548" d="M65 162V381Q65 443 44 476Q77 504 120 504T180 484T196 422V189Q196 146 207 128T248 109Q301 109 347 155V496Q369 501 411 501T478 496V141Q478 82 506 58Q501 40 489 21T462 -8Q389 -1 361
63Q284 -9 202 -9Q135 -9 100 38T65 162ZM184 591L334 755Q360 747 384 724T418 675L239 539Q199 552 184 591Z" />
<glyph unicode="&#xfb;" glyph-name="ucircumflex" horiz-adv-x="548" d="M65 162V381Q65 443 44 476Q77 504 120 504T180 484T196 422V189Q196 146 207 128T248 109Q301 109 347 155V496Q369 501 411 501T478 496V141Q478 82 506 58Q501 40 489 21T462 -8Q389
-1 361 63Q284 -9 202 -9Q135 -9 100 38T65 162ZM362 549L269 638L171 543Q133 557 112 594L217 729Q265 745 326 729L420 604Q412 585 395 570T362 549Z" />
<glyph unicode="&#xfc;" glyph-name="udieresis" horiz-adv-x="548" d="M65 162V381Q65 443 44 476Q77 504 120 504T180 484T196 422V189Q196 146 207 128T248 109Q301 109 347 155V496Q369 501 411 501T478 496V141Q478 82 506 58Q501 40 489 21T462 -8Q389 -1
361 63Q284 -9 202 -9Q135 -9 100 38T65 162ZM306 663Q329 677 363 677Q395 677 420 663Q428 641 428 617Q428 598 425 585T412 568T391 561T363 559Q347 559 332 562T306 573Q301 583 300 594T298 618Q298 644 306 663ZM112 663Q135 677 169 677Q201 677 226 663Q234
641 234 617Q234 598 231 585T218 568T197 561T169 559Q153 559 138 562T112 573Q107 583 106 594T104 618Q104 644 112 663Z" />
<glyph unicode="&#xfd;" glyph-name="yacute" horiz-adv-x="483" d="M475 484L347 14Q314 -105 264 -162T112 -219Q56 -219 3 -200Q1 -178 9 -150T30 -107Q74 -121 113 -121Q190 -121 221 -19L225 -6Q187 -5 165 8T134 52L10 486Q51 505 83 505T130 493T155 448L212
237Q218 214 241 98Q242 91 250 91L348 496Q371 502 406 502T470 492L475 484ZM156 591L306 755Q332 747 356 724T390 675L211 539Q171 552 156 591Z" />
<glyph unicode="&#xfe;" glyph-name="thorn" horiz-adv-x="531" d="M301 -9Q249 -9 195 17V-135Q195 -180 179 -198T124 -216H75L69 -209V729L75 736H124Q163 736 179 718T195 655V460Q250 506 317 506Q399 506 446 438T493 249Q493 189 478 141T436 60T375 9T301
-9ZM285 400Q232 400 195 349V119Q239 90 274 90Q313 90 336 131T360 251Q360 329 339 364T285 400Z" />
<glyph unicode="&#xff;" glyph-name="ydieresis" horiz-adv-x="483" d="M475 484L347 14Q314 -105 264 -162T112 -219Q56 -219 3 -200Q1 -178 9 -150T30 -107Q74 -121 113 -121Q190 -121 221 -19L225 -6Q187 -5 165 8T134 52L10 486Q51 505 83 505T130 493T155
448L212 237Q218 214 241 98Q242 91 250 91L348 496Q371 502 406 502T470 492L475 484ZM280 663Q303 677 337 677Q369 677 394 663Q402 641 402 617Q402 598 399 585T386 568T365 561T337 559Q321 559 306 562T280 573Q275 583 274 594T272 618Q272 644 280 663ZM86
663Q109 677 143 677Q175 677 200 663Q208 641 208 617Q208 598 205 585T192 568T171 561T143 559Q127 559 112 562T86 573Q81 583 80 594T78 618Q78 644 86 663Z" />
<glyph unicode="&#x2013;" glyph-name="endash" horiz-adv-x="544" d="M480 214H64Q58 236 58 266T64 316H480Q486 296 486 266T480 214Z" />
<glyph unicode="&#x2014;" glyph-name="emdash" horiz-adv-x="807" d="M731 214H76Q71 236 71 265T76 316H731Q737 296 737 266T731 214Z" />
<glyph unicode="&#x2018;" glyph-name="quoteleft" horiz-adv-x="249" d="M52 511Q40 544 40 584Q40 653 79 705T193 780Q208 772 216 758T224 727V719Q149 687 146 634Q168 629 179 625T194 612T199 593T201 566Q201 541 196 526T180 505T154 498T119 495Q75
495 52 511Z" />
<glyph unicode="&#x2019;" glyph-name="quoteright" horiz-adv-x="249" d="M196 764Q208 732 208 691Q208 622 169 570T55 494Q41 502 32 517T24 556Q54 567 78 589T103 641Q82 644 71 648T55 662T50 682T48 710Q48 747 59 764Q88 780 130 780Q171 780 196 764Z" />
<glyph unicode="&#x201a;" glyph-name="quotesinglbase" horiz-adv-x="249" d="M197 114Q209 85 209 41Q209 -28 170 -80T56 -156Q42 -148 33 -133T25 -94Q55 -83 78 -61T103 -9Q82 -6 71 -1T57 11T52 31T49 60Q49 97 60 114Q89 130 131 130Q172 130 197 114Z" />
<glyph unicode="&#x201c;" glyph-name="quotedblleft" horiz-adv-x="464" d="M50 511Q38 544 38 584Q38 653 77 705T191 780Q206 772 214 758T222 719Q147 687 144 634Q166 629 177 625T192 612T197 593T199 566Q199 541 195 526T179 506T152 498T117 495Q73 495
50 511ZM265 511Q253 544 253 584Q253 653 292 705T406 780Q421 772 429 758T437 719Q362 687 359 634Q381 629 392 625T407 612T412 593T414 566Q414 541 410 526T394 506T367 498T332 495Q288 495 265 511Z" />
<glyph unicode="&#x201d;" glyph-name="quotedblright" horiz-adv-x="464" d="M199 764Q211 732 211 691Q211 622 172 570T58 494Q44 502 35 517T27 556Q57 567 81 589T106 641Q85 644 74 648T58 662T53 682T51 710Q51 747 62 764Q91 780 133 780Q174 780 199
764ZM415 764Q427 732 427 691Q427 622 388 570T274 494Q260 502 251 517T243 556Q273 567 297 589T322 641Q301 644 290 648T274 662T269 682T267 710Q267 747 278 764Q307 780 349 780Q390 780 415 764Z" />
<glyph unicode="&#x201e;" glyph-name="quotedblbase" horiz-adv-x="465" d="M197 114Q209 85 209 41Q209 -28 170 -80T56 -156Q42 -148 33 -133T25 -94Q55 -83 78 -61T103 -9Q82 -6 71 -1T56 12T51 32T49 60Q49 97 60 114Q89 130 131 130Q172 130 197 114ZM412
114Q424 85 424 41Q424 -28 385 -80T271 -156Q257 -148 248 -133T240 -94Q270 -83 293 -61T318 -9Q297 -6 286 -2T272 12T266 32T264 60Q264 97 275 114Q304 130 346 130Q387 130 412 114Z" />
<glyph unicode="&#x2022;" glyph-name="bullet" horiz-adv-x="455" d="M118 177Q102 212 102 270Q102 328 118 363Q142 377 171 383T229 390Q290 390 340 363Q355 328 355 270Q355 211 340 177Q299 150 230 150Q161 150 118 177Z" />
<glyph unicode="&#x2039;" glyph-name="guilsinglleft" horiz-adv-x="341" d="M303 413L172 257L307 98Q300 77 278 57T234 31L34 216Q27 232 27 255T34 294L232 481Q253 475 274 455T303 413Z" />
<glyph unicode="&#x203a;" glyph-name="guilsinglright" horiz-adv-x="341" d="M38 99L168 255L33 414Q40 435 62 455T106 481L307 295Q313 280 313 257T307 218L109 31Q87 37 66 57T38 99Z" />
</font>
</defs>
</svg>
